  0
SECTION
  2
HEADER
  9
$ACADVER
  1
AC1015
  9
$ACADMAINTVER
 70
    20
  9
$DWGCODEPAGE
  3
ANSI_1252
  9
$INSBASE
 10
0.0
 20
0.0
 30
0.0
  9
$EXTMIN
 10
0.4992370925602001
 20
0.0787430066600715
 30
-0.0000000349181977
  9
$EXTMAX
 10
10.72590640085505
 20
7.400672934600936
 30
0.0000000814935718
  9
$LIMMIN
 10
-1.0
 20
-1.0
  9
$LIMMAX
 10
12.0
 20
9.5
  9
$ORTHOMODE
 70
     0
  9
$REGENMODE
 70
     1
  9
$FILLMODE
 70
     1
  9
$QTEXTMODE
 70
     0
  9
$MIRRTEXT
 70
     1
  9
$LTSCALE
 40
1.0
  9
$ATTMODE
 70
     1
  9
$TEXTSIZE
 40
0.18
  9
$TRACEWID
 40
0.05
  9
$TEXTSTYLE
  7
ROMANS
  9
$CLAYER
  8
DIM
  9
$CELTYPE
  6
ByLayer
  9
$CECOLOR
 62
   256
  9
$CELTSCALE
 40
1.0
  9
$DISPSILH
 70
     0
  9
$DIMSCALE
 40
1.0
  9
$DIMASZ
 40
0.18
  9
$DIMEXO
 40
0.0625
  9
$DIMDLI
 40
0.38
  9
$DIMRND
 40
0.0
  9
$DIMDLE
 40
0.0
  9
$DIMEXE
 40
0.18
  9
$DIMTP
 40
0.0
  9
$DIMTM
 40
0.0
  9
$DIMTXT
 40
0.18
  9
$DIMCEN
 40
0.09
  9
$DIMTSZ
 40
0.0
  9
$DIMTOL
 70
     0
  9
$DIMLIM
 70
     0
  9
$DIMTIH
 70
     1
  9
$DIMTOH
 70
     1
  9
$DIMSE1
 70
     0
  9
$DIMSE2
 70
     0
  9
$DIMTAD
 70
     0
  9
$DIMZIN
 70
     0
  9
$DIMBLK
  1

  9
$DIMASO
 70
     1
  9
$DIMSHO
 70
     1
  9
$DIMPOST
  1

  9
$DIMAPOST
  1

  9
$DIMALT
 70
     0
  9
$DIMALTD
 70
     2
  9
$DIMALTF
 40
25.4
  9
$DIMLFAC
 40
1.0
  9
$DIMTOFL
 70
     0
  9
$DIMTVP
 40
0.0
  9
$DIMTIX
 70
     0
  9
$DIMSOXD
 70
     0
  9
$DIMSAH
 70
     0
  9
$DIMBLK1
  1

  9
$DIMBLK2
  1

  9
$DIMSTYLE
  2
Standard
  9
$DIMCLRD
 70
     0
  9
$DIMCLRE
 70
     0
  9
$DIMCLRT
 70
     0
  9
$DIMTFAC
 40
1.0
  9
$DIMGAP
 40
0.09
  9
$DIMJUST
 70
     0
  9
$DIMSD1
 70
     0
  9
$DIMSD2
 70
     0
  9
$DIMTOLJ
 70
     1
  9
$DIMTZIN
 70
     0
  9
$DIMALTZ
 70
     0
  9
$DIMALTTZ
 70
     0
  9
$DIMUPT
 70
     0
  9
$DIMDEC
 70
     2
  9
$DIMTDEC
 70
     2
  9
$DIMALTU
 70
     2
  9
$DIMALTTD
 70
     2
  9
$DIMTXSTY
  7
STANDARD
  9
$DIMAUNIT
 70
     0
  9
$DIMADEC
 70
     0
  9
$DIMALTRND
 40
0.0
  9
$DIMAZIN
 70
     0
  9
$DIMDSEP
 70
    46
  9
$DIMATFIT
 70
     3
  9
$DIMFRAC
 70
     0
  9
$DIMLDRBLK
  1

  9
$DIMLUNIT
 70
     2
  9
$DIMLWD
 70
    -2
  9
$DIMLWE
 70
    -2
  9
$DIMTMOVE
 70
     2
  9
$LUNITS
 70
     2
  9
$LUPREC
 70
     2
  9
$SKETCHINC
 40
0.1
  9
$FILLETRAD
 40
0.03
  9
$AUNITS
 70
     0
  9
$AUPREC
 70
     0
  9
$MENU
  1
acad
  9
$ELEVATION
 40
0.0
  9
$PELEVATION
 40
0.0
  9
$THICKNESS
 40
0.0
  9
$LIMCHECK
 70
     0
  9
$CHAMFERA
 40
0.0
  9
$CHAMFERB
 40
0.0
  9
$CHAMFERC
 40
0.0
  9
$CHAMFERD
 40
0.0
  9
$SKPOLY
 70
     0
  9
$TDCREATE
 40
2448580.652096528
  9
$TDUCREATE
 40
2448580.902096528
  9
$TDUPDATE
 40
2454475.475845463
  9
$TDUUPDATE
 40
2454475.725845463
  9
$TDINDWG
 40
0.0573195023
  9
$TDUSRTIMER
 40
0.0573191435
  9
$USRTIMER
 70
     1
  9
$ANGBASE
 50
0.0
  9
$ANGDIR
 70
     0
  9
$PDMODE
 70
     0
  9
$PDSIZE
 40
0.0
  9
$PLINEWID
 40
0.0
  9
$SPLFRAME
 70
     0
  9
$SPLINETYPE
 70
     6
  9
$SPLINESEGS
 70
     8
  9
$HANDSEED
  5
3A8
  9
$SURFTAB1
 70
     6
  9
$SURFTAB2
 70
     6
  9
$SURFTYPE
 70
     6
  9
$SURFU
 70
     6
  9
$SURFV
 70
     6
  9
$UCSBASE
  2

  9
$UCSNAME
  2

  9
$UCSORG
 10
0.0
 20
0.0
 30
0.0
  9
$UCSXDIR
 10
1.0
 20
0.0
 30
0.0
  9
$UCSYDIR
 10
0.0
 20
1.0
 30
0.0
  9
$UCSORTHOREF
  2

  9
$UCSORTHOVIEW
 70
     0
  9
$UCSORGTOP
 10
0.0
 20
0.0
 30
0.0
  9
$UCSORGBOTTOM
 10
0.0
 20
0.0
 30
0.0
  9
$UCSORGLEFT
 10
0.0
 20
0.0
 30
0.0
  9
$UCSORGRIGHT
 10
0.0
 20
0.0
 30
0.0
  9
$UCSORGFRONT
 10
0.0
 20
0.0
 30
0.0
  9
$UCSORGBACK
 10
0.0
 20
0.0
 30
0.0
  9
$PUCSBASE
  2

  9
$PUCSNAME
  2

  9
$PUCSORG
 10
0.0
 20
0.0
 30
0.0
  9
$PUCSXDIR
 10
1.0
 20
0.0
 30
0.0
  9
$PUCSYDIR
 10
0.0
 20
1.0
 30
0.0
  9
$PUCSORTHOREF
  2

  9
$PUCSORTHOVIEW
 70
     0
  9
$PUCSORGTOP
 10
0.0
 20
0.0
 30
0.0
  9
$PUCSORGBOTTOM
 10
0.0
 20
0.0
 30
0.0
  9
$PUCSORGLEFT
 10
0.0
 20
0.0
 30
0.0
  9
$PUCSORGRIGHT
 10
0.0
 20
0.0
 30
0.0
  9
$PUCSORGFRONT
 10
0.0
 20
0.0
 30
0.0
  9
$PUCSORGBACK
 10
0.0
 20
0.0
 30
0.0
  9
$USERI1
 70
     0
  9
$USERI2
 70
     0
  9
$USERI3
 70
     0
  9
$USERI4
 70
     0
  9
$USERI5
 70
     0
  9
$USERR1
 40
0.0
  9
$USERR2
 40
0.0
  9
$USERR3
 40
0.0
  9
$USERR4
 40
0.0
  9
$USERR5
 40
0.0
  9
$WORLDVIEW
 70
     1
  9
$SHADEDGE
 70
     3
  9
$SHADEDIF
 70
    70
  9
$TILEMODE
 70
     1
  9
$MAXACTVP
 70
    16
  9
$PINSBASE
 10
0.0
 20
0.0
 30
0.0
  9
$PLIMCHECK
 70
     0
  9
$PEXTMIN
 10
1.000000000000000E+20
 20
1.000000000000000E+20
 30
1.000000000000000E+20
  9
$PEXTMAX
 10
-1.000000000000000E+20
 20
-1.000000000000000E+20
 30
-1.000000000000000E+20
  9
$PLIMMIN
 10
0.0
 20
0.0
  9
$PLIMMAX
 10
12.0
 20
9.0
  9
$UNITMODE
 70
     0
  9
$VISRETAIN
 70
     0
  9
$PLINEGEN
 70
     0
  9
$PSLTSCALE
 70
     0
  9
$TREEDEPTH
 70
  3020
  9
$CMLSTYLE
  2
Standard
  9
$CMLJUST
 70
     0
  9
$CMLSCALE
 40
1.0
  9
$PROXYGRAPHICS
 70
     1
  9
$MEASUREMENT
 70
     0
  9
$CELWEIGHT
370
    -1
  9
$ENDCAPS
280
     0
  9
$JOINSTYLE
280
     0
  9
$LWDISPLAY
290
     0
  9
$INSUNITS
 70
     0
  9
$HYPERLINKBASE
  1

  9
$STYLESHEET
  1

  9
$XEDIT
290
     1
  9
$CEPSNTYPE
380
     0
  9
$PSTYLEMODE
290
     1
  9
$FINGERPRINTGUID
  2
{670E59C8-22A5-4CD1-8208-A84FEB6A1370}
  9
$VERSIONGUID
  2
{E354844F-84D2-4C85-9C3B-9DF8FD234A2C}
  9
$EXTNAMES
290
     1
  9
$PSVPSCALE
 40
0.0
  9
$OLESTARTUP
290
     0
  0
ENDSEC
  0
SECTION
  2
CLASSES
  0
CLASS
  1
ACDBDICTIONARYWDFLT
  2
AcDbDictionaryWithDefault
  3
ObjectDBX Classes
 90
        0
280
     0
281
     0
  0
CLASS
  1
MATERIAL
  2
AcDbMaterial
  3
ObjectDBX Classes
 90
     1024
280
     0
281
     0
  0
CLASS
  1
VISUALSTYLE
  2
AcDbVisualStyle
  3
ObjectDBX Classes
 90
     4095
280
     0
281
     0
  0
CLASS
  1
SCALE
  2
AcDbScale
  3
ObjectDBX Classes
 90
     1153
280
     1
281
     0
  0
CLASS
  1
TABLESTYLE
  2
AcDbTableStyle
  3
ObjectDBX Classes
 90
     4095
280
     0
281
     0
  0
CLASS
  1
MLEADERSTYLE
  2
AcDbMLeaderStyle
  3
ACDB_MLEADERSTYLE_CLASS
 90
     4095
280
     1
281
     0
  0
CLASS
  1
ACME_DOCUMENT
  2
AcMeDbDoc
  3
AcMeServices
 90
        0
280
     1
281
     0
  0
CLASS
  1
ACMESCOPE
  2
AcMeScope
  3
AcMeServices
 90
        0
280
     1
281
     0
  0
CLASS
  1
ACMECOMMANDHISTORY
  2
AcMeCommandHistory
  3
AcMeServices
 90
        0
280
     1
281
     0
  0
CLASS
  1
ACIMSYSVARMAN
  2
AcImSysVarManager
  3
AcMeServices
 90
        0
280
     1
281
     0
  0
CLASS
  1
ACIMINTSYSVAR
  2
AcImIntSysVar
  3
AcMeServices
 90
        0
280
     1
281
     0
  0
CLASS
  1
ACMEDRAWINGMAN
  2
AcMeDrawingMan
  3
AcMeServices
 90
        0
280
     1
281
     0
  0
CLASS
  1
ACMEVIEW
  2
AcMeView
  3
AcMeServices
 90
        0
280
     1
281
     0
  0
CLASS
  1
ACDBENTITYCACHE
  2
AcMeEntityCache
  3
AcMeServices
 90
        0
280
     1
281
     0
  0
CLASS
  1
GSMANAGER
  2
AcMeGSManager
  3
AcMeServices
 90
        0
280
     1
281
     0
  0
CLASS
  1
AMDTINTERNALREACTOR
  2
AmdtInternalReactor
  3
AcMeServices
 90
        0
280
     1
281
     0
  0
CLASS
  1
ACMESTATEMGR
  2
AcMeStateMgr
  3
AcMeServices
 90
        0
280
     1
281
     0
  0
CLASS
  1
ACGREFMASTER
  2
AcGrefMaster
  3
AcAttribServices
 90
        0
280
     1
281
     0
  0
CLASS
  1
AM_DRAWING_MGR
  2
AcDmDwgMgr
  3
AcMechDwgViewMgmt
 90
        0
280
     1
281
     0
  0
CLASS
  1
AM_DWG_DOCUMENT
  2
AcDmDwgDocument
  3
AcMechDwgViewMgmt
 90
        0
280
     1
281
     0
  0
CLASS
  1
AM_DWG_SHEET
  2
AcDmSheet
  3
AcMechDwgViewMgmt
 90
        0
280
     1
281
     0
  0
CLASS
  1
AM_VIEWDIMPARMAP
  2
AcDmViewDimParMap
  3
AcMechDwgViewMgmt
 90
        0
280
     1
281
     0
  0
CLASS
  1
ACIMREALSYSVAR
  2
AcImRealSysVar
  3
AcMeServices
 90
        0
280
     1
281
     0
  0
CLASS
  1
AM_DWGMGR_NAME
  2
AcDmDwgMgrName
  3
AcMechDwgViewMgmt
 90
        0
280
     1
281
     0
  0
CLASS
  1
ACME_DATABASE
  2
AcMeDbDatabase
  3
AcMeServices
 90
        0
280
     1
281
     0
  0
CLASS
  1
ACRFINSADJUSTERMGR
  2
AcRfInsAdjusterMgr
  3
AcMeServices
 90
        0
280
     1
281
     0
  0
CLASS
  1
ACGREFACADMASTER
  2
AcGrefacadMaster
  3
AcGrefServices
 90
        0
280
     1
281
     0
  0
CLASS
  1
AMDTMENUSTATEMGR
  2
AmdtMenuStateMgr
  3
McadcomServices
 90
        0
280
     1
281
     0
  0
CLASS
  1
AMDTMCOMMENUSTATE
  2
AmdtMcomMenuState
  3
McadcomServices
 90
        0
280
     1
281
     0
  0
CLASS
  1
AMIMASTER
  2
AmiMaster
  3
AmiServices
 90
        0
280
     1
281
     0
  0
CLASS
  1
AMGSETTINGSOBJ
  2
AmgSettingsObj
  3
"AcadM|Product Description: AutoCAD Mechanical|Company: Autodesk"
 90
        0
280
     1
281
     0
  0
CLASS
  1
MAPIAMMOUDLE
  2
MApiAmModule
  3
MApiAmServices
 90
        0
280
     1
281
     0
  0
CLASS
  1
ACIMSTRSYSVAR
  2
AcImStrSysVar
  3
AcMeServices
 90
        0
280
     1
281
     0
  0
CLASS
  1
AMDTADMENUSTATE
  2
AmdtAdMenuState
  3
DesignerServices
 90
        0
280
     1
281
     0
  0
CLASS
  1
ADAPPL
  2
AcAdAppl
  3
DesignerServices
 90
        0
280
     1
281
     0
  0
CLASS
  1
DEPMGR
  2
AcAdDepMgr
  3
DesignerServices
 90
        0
280
     1
281
     0
  0
CLASS
  1
PARAMMGR
  2
AcAdParamMgr
  3
DesignerServices
 90
        0
280
     1
281
     0
  0
CLASS
  1
PARAMSCOPE
  2
AcAdParamScope
  3
DesignerServices
 90
        0
280
     1
281
     0
  0
CLASS
  1
NAMEDAPPL
  2
AcAdNamedAppl
  3
DesignerServices
 90
        0
280
     1
281
     0
  0
CLASS
  1
AMDTDMMENUSTATE
  2
AmdtDmMenuState
  3
AcMechDwgViewMgmt
 90
        0
280
     1
281
     0
  0
CLASS
  1
AMDTAMMENUSTATE
  2
AmdtAmMenuState
  3
DesignerAssemblies
 90
        0
280
     1
281
     0
  0
CLASS
  1
ACAMPROJECT
  2
AcAmProject
  3
DesignerAssemblies
 90
        0
280
     1
281
     0
  0
CLASS
  1
ACAMGRCOMPDEF
  2
AcAmGrCompDef
  3
DesignerAssemblies
 90
        0
280
     1
281
     0
  0
CLASS
  1
ACCMCONTEXT
  2
AcCmContext
  3
DesignerAssemblies
 90
        0
280
     1
281
     0
  0
CLASS
  1
ACAMCOMPDEF
  2
AcAmCompDef
  3
DesignerAssemblies
 90
        0
280
     1
281
     0
  0
CLASS
  1
ACAMCOMPDEFMGR
  2
AcAmCompDefMgr
  3
DesignerAssemblies
 90
        0
280
     1
281
     0
  0
CLASS
  1
AMCONTEXTMGR
  2
AcAmContextMgr
  3
DesignerAssemblies
 90
        0
280
     1
281
     0
  0
CLASS
  1
ACAMCONTEXTMODELER
  2
AcAmContextModeler
  3
DesignerAssemblies
 90
        0
280
     1
281
     0
  0
CLASS
  1
ACMDATADICTIONARY
  2
AcmDataDictionary
  3
"AcmSymBB|Product Description: AutoCAD Mechanical|Company: Autodesk"
 90
        0
280
     1
281
     0
  0
CLASS
  1
CATALOGSTATE
  2
AcAmCatalogState
  3
DesignerAssemblies
 90
        0
280
     1
281
     0
  0
CLASS
  1
ACAMGRCOMPDEFSET
  2
AcAmGrCompDefSet
  3
DesignerAssemblies
 90
        0
280
     1
281
     0
  0
CLASS
  1
AMDTBROWSERDBTAB
  2
AmdtBrowserDbTab
  3
McadcomServices
 90
        0
280
     1
281
     0
  0
CLASS
  1
CBROWSERAPPOBJECT
  2
CBrowserAppObject
  3
McadcomServices
 90
        0
280
     1
281
     0
  0
CLASS
  1
DM_PLACEHOLDER
  2
AcDmSelsetPlaceholder
  3
AcMechDwgViewMgmt
 90
        0
280
     1
281
     0
  0
CLASS
  1
ACMSTANDARDANSI
  2
AcmStandardANSI
  3
"Amdt_StdImp|Product Description: AutoCAD Mechanical|Company: Autodesk"
 90
        0
280
     1
281
     0
  0
CLASS
  1
AMGOBJPROPCFG
  2
AmgObjPropCfg
  3
"AmgLay|Product Description: AutoCAD Mechanical|Company: Autodesk"
 90
        1
280
     1
281
     0
  0
CLASS
  1
ACMSURFSTANDARDANSI
  2
AcmSurfTextStdANSI
  3
"Amdt_StdImp|Product Description: AutoCAD Mechanical|Company: Autodesk"
 90
        0
280
     1
281
     0
  0
CLASS
  1
ACMFCFSTANDARDANSI
  2
AcmFCFStdANSI
  3
"Amdt_StdImp|Product Description: AutoCAD Mechanical|Company: Autodesk"
 90
        0
280
     1
281
     0
  0
CLASS
  1
ACMWELDSTANDARDANSI
  2
AcmWeldingStdANSI
  3
"Amdt_StdImp|Product Description: AutoCAD Mechanical|Company: Autodesk"
 90
        0
280
     1
281
     0
  0
CLASS
  1
ACMIDSTANDARDANSI
  2
AcmIdStdANSI
  3
"Amdt_StdImp|Product Description: AutoCAD Mechanical|Company: Autodesk"
 90
        0
280
     1
281
     0
  0
CLASS
  1
ACMDATUMSTANDARDANSI
  2
AcmDatumStdANSI
  3
"Amdt_StdImp|Product Description: AutoCAD Mechanical|Company: Autodesk"
 90
        0
280
     1
281
     0
  0
CLASS
  1
ACMBOMSTANDARDANSI
  2
AcmBOMStdANSI
  3
"Amdt_StdImp|Product Description: AutoCAD Mechanical|Company: Autodesk"
 90
        0
280
     1
281
     0
  0
CLASS
  1
ACMDETAILSTANDARDANSI
  2
AmdtDetailSymStdANSI
  3
"Amdt_StdImp|Product Description: AutoCAD Mechanical|Company: Autodesk"
 90
        0
280
     1
281
     0
  0
CLASS
  1
ACMSECTIONSTANDARDANSI
  2
AmdtSectionSymStdANSI
  3
"Amdt_StdImp|Product Description: AutoCAD Mechanical|Company: Autodesk"
 90
        0
280
     1
281
     0
  0
CLASS
  1
ACMCENTERLINESTANDARDANSI
  2
AmdtCenterLineStdANSI
  3
"Amdt_StdImp|Product Description: AutoCAD Mechanical|Company: Autodesk"
 90
        0
280
     1
281
     0
  0
CLASS
  1
ACMTHREADLINESTANDARDANSI
  2
AmdtThreadLineStdANSI
  3
"Amdt_StdImp|Product Description: AutoCAD Mechanical|Company: Autodesk"
 90
        0
280
     1
281
     0
  0
CLASS
  1
ACMNOTESTANDARDANSI
  2
AmdtNoteStdANSI
  3
"Amdt_StdImp|Product Description: AutoCAD Mechanical|Company: Autodesk"
 90
        0
280
     1
281
     0
  0
CLASS
  1
ACMTAPERSTANDARDANSI
  2
AcmTaperStdANSI
  3
"Amdt_StdImp|Product Description: AutoCAD Mechanical|Company: Autodesk"
 90
        0
280
     1
281
     0
  0
CLASS
  1
ACMANOOTATIONVIEWSTANDARDANSI
  2
AmdtAnViewStdANSI
  3
"Amdt_StdImp|Product Description: AutoCAD Mechanical|Company: Autodesk, Inc."
 90
    33792
280
     1
281
     0
  0
CLASS
  1
AMDTNOTETEMPLATEDB
  2
AmdtNoteTemplateDB
  3
AMDT_STDIMP_MODULE_NAME
 90
        0
280
     1
281
     0
  0
CLASS
  1
ACAMGLAYSTD
  2
AcAmgLayStd
  3
"AmgLay|Product Description: AutoCAD Mechanical|Company: Autodesk"
 90
        0
280
     1
281
     0
  0
CLASS
  1
ACAMGDIMSTD
  2
AcAmgDimStd
  3
"AmgDim|Product Description: AutoCAD Mechanical|Company: Autodesk"
 90
        0
280
     1
281
     0
  0
CLASS
  1
ACAMGHOLECHARTSTDANSI
  2
AcAmgHoleChartStdANSI
  3
ACMSYMBB_MODULE_NAME
 90
        0
280
     1
281
     0
  0
CLASS
  1
ACAMGTITLESTD
  2
AcAmgTitleStd
  3
"AmgTitle|Product Description: AutoCAD Mechanical|Company: Autodesk"
 90
        0
280
     1
281
     0
  0
CLASS
  1
ACAMGFILTERDAT
  2
AcAmgFilterDat
  3
"AcadM|Product Description: AutoCAD Mechanical|Company: Autodesk"
 90
    32768
280
     1
281
     0
  0
CLASS
  1
CELLSTYLEMAP
  2
AcDbCellStyleMap
  3
ObjectDBX Classes
 90
    33920
280
     1
281
     0
  0
CLASS
  1
DICTIONARYVAR
  2
AcDbDictionaryVar
  3
ObjectDBX Classes
 90
        0
280
     0
281
     0
  0
CLASS
  1
ACDBPLACEHOLDER
  2
AcDbPlaceHolder
  3
ObjectDBX Classes
 90
        0
280
     0
281
     0
  0
CLASS
  1
LAYOUT
  2
AcDbLayout
  3
ObjectDBX Classes
 90
        0
280
     0
281
     0
  0
ENDSEC
  0
SECTION
  2
TABLES
  0
TABLE
  2
VPORT
  5
8
330
0
100
AcDbSymbolTable
 70
     1
  0
VPORT
  5
85
330
8
100
AcDbSymbolTableRecord
100
AcDbViewportTableRecord
  2
*ACTIVE
 70
     0
 10
0.0
 20
0.0
 11
1.0
 21
1.0
 12
5.612571746707628
 22
3.739707970630504
 13
0.0
 23
0.0
 14
1.0
 24
1.0
 15
0.0
 25
0.0
 16
0.0
 26
0.0
 36
1.0
 17
0.0
 27
0.0
 37
0.0
 40
9.528642569225894
 41
1.084095063985374
 42
50.0
 43
0.0
 44
0.0
 50
0.0
 51
0.0
 71
     0
 72
   100
 73
     1
 74
     0
 75
     0
 76
     0
 77
     0
 78
     0
281
     0
 65
     0
110
0.0
120
0.0
130
0.0
111
1.0
121
0.0
131
0.0
112
0.0
122
1.0
132
0.0
 79
     0
146
0.0
  0
ENDTAB
  0
TABLE
  2
LTYPE
  5
5
330
0
100
AcDbSymbolTable
 70
    15
  0
LTYPE
  5
62
330
5
100
AcDbSymbolTableRecord
100
AcDbLinetypeTableRecord
  2
ByBlock
 70
     0
  3

 72
    65
 73
     0
 40
0.0
  0
LTYPE
  5
63
330
5
100
AcDbSymbolTableRecord
100
AcDbLinetypeTableRecord
  2
ByLayer
 70
     0
  3

 72
    65
 73
     0
 40
0.0
  0
LTYPE
  5
64
330
5
100
AcDbSymbolTableRecord
100
AcDbLinetypeTableRecord
  2
CONTINUOUS
 70
     0
  3
Solid line
 72
    65
 73
     0
 40
0.0
  0
LTYPE
  5
83
330
5
100
AcDbSymbolTableRecord
100
AcDbLinetypeTableRecord
  2
HIDDEN2
 70
     0
  3
_ _ _ _ _ _ _ _ _ _ _ _ _ _ _ _ _ _ _ _ _ _ _ _
 72
    65
 73
     2
 40
0.1875
 49
0.125
 74
     0
 49
-0.0625
 74
     0
  0
LTYPE
  5
201
330
5
100
AcDbSymbolTableRecord
100
AcDbLinetypeTableRecord
  2
HIDDEN
 70
     0
  3
Hidden __ __ __ __ __ __ __ __ __ __ __ __ __ _
 72
    65
 73
     2
 40
0.375
 49
0.25
 74
     0
 49
-0.125
 74
     0
  0
LTYPE
  5
202
330
5
100
AcDbSymbolTableRecord
100
AcDbLinetypeTableRecord
  2
PHANTOM2
 70
     0
  3
Phantom (.5x) ___ _ _ ___ _ _ ___ _ _ ___ _ _
 72
    65
 73
     6
 40
1.25
 49
0.625
 74
     0
 49
-0.125
 74
     0
 49
0.125
 74
     0
 49
-0.125
 74
     0
 49
0.125
 74
     0
 49
-0.125
 74
     0
  0
LTYPE
  5
203
330
5
100
AcDbSymbolTableRecord
100
AcDbLinetypeTableRecord
  2
CENTER
 70
     0
  3
Center ____ _ ____ _ ____ _ ____ _ ____ _ ____
 72
    65
 73
     4
 40
2.0
 49
1.25
 74
     0
 49
-0.25
 74
     0
 49
0.25
 74
     0
 49
-0.25
 74
     0
  0
LTYPE
  5
24C
330
5
100
AcDbSymbolTableRecord
100
AcDbLinetypeTableRecord
  2
ACANSTGB
 70
     0
  3
__ . . __ . .
 72
    65
 73
     6
 40
0.35433070866
 49
0.15748031496
 74
     0
 49
-0.03937007874
 74
     0
 49
0.03937007874
 74
     0
 49
-0.03937007874
 74
     0
 49
0.03937007874
 74
     0
 49
-0.03937007874
 74
     0
  0
LTYPE
  5
24D
330
5
100
AcDbSymbolTableRecord
100
AcDbLinetypeTableRecord
  2
ACANSTGL
 70
     0
  3
_ _ _ _ _
 72
    65
 73
     2
 40
0.11811023622
 49
0.07874015748
 74
     0
 49
-0.03937007874
 74
     0
  0
LTYPE
  5
31C
330
5
100
AcDbSymbolTableRecord
100
AcDbLinetypeTableRecord
  2
AM_ISO02W050
 70
     0
  3
__ __ __ __ __ __ __ __ __ __ __ __ __ __ __
 72
    65
 73
     2
 40
7.5
 49
6.0
 74
     0
 49
-1.5
 74
     0
  0
LTYPE
  5
31D
330
5
100
AcDbSymbolTableRecord
100
AcDbLinetypeTableRecord
  2
AM_ISO08W050
 70
     0
  3
____ . ____ . ____ . ____ . ____ . ____ . ____
 72
    65
 73
     4
 40
18.0
 49
12.0
 74
     0
 49
-1.5
 74
     0
 49
3.0
 74
     0
 49
-1.5
 74
     0
  0
LTYPE
  5
31E
330
5
100
AcDbSymbolTableRecord
100
AcDbLinetypeTableRecord
  2
AM_ISO09W050
 70
     0
  3
_____ . . _____ . . _____ . . ____ .. ____
 72
    65
 73
     6
 40
22.5
 49
12.0
 74
     0
 49
-1.5
 74
     0
 49
3.0
 74
     0
 49
-1.5
 74
     0
 49
3.0
 74
     0
 49
-1.5
 74
     0
  0
LTYPE
  5
31F
330
5
100
AcDbSymbolTableRecord
100
AcDbLinetypeTableRecord
  2
Amconstr
 70
     0
  3
_______________________
 72
    65
 73
     2
 40
9999.0
 49
9999.0
 74
     0
 49
0.0
 74
     0
  0
LTYPE
  5
320
330
5
100
AcDbSymbolTableRecord
100
AcDbLinetypeTableRecord
  2
AM_ISO08W050x2
 70
     0
  3
__ . __ . __ . __ . __ . __
 72
    65
 73
     4
 40
9.0
 49
6.0
 74
     0
 49
-0.75
 74
     0
 49
1.5
 74
     0
 49
-0.75
 74
     0
  0
LTYPE
  5
321
330
5
100
AcDbSymbolTableRecord
100
AcDbLinetypeTableRecord
  2
AM_ISO02W050x2
 70
     0
  3
 _ _ _ _ _ _ _ _ _ _ _ _
 72
    65
 73
     2
 40
3.75
 49
3.0
 74
     0
 49
-0.75
 74
     0
  0
LTYPE
  5
324
330
5
100
AcDbSymbolTableRecord
100
AcDbLinetypeTableRecord
  2
Amzigzag
 70
     0
  3
/\/-/\/-/\/-/\/-/\/-/\/
 72
    65
 73
     2
 40
11.0001
 49
0.0001
 74
     4
 75
   136
340
323
 46
0.04
 50
0.0
 44
0.0
 45
0.0
 49
-11.0
 74
     0
  0
ENDTAB
  0
TABLE
  2
LAYER
  5
2
330
0
100
AcDbSymbolTable
 70
     4
  0
LAYER
  5
5C
102
{ACAD_XDICTIONARY
360
263
102
}
330
2
100
AcDbSymbolTableRecord
100
AcDbLayerTableRecord
  2
0
 70
     0
 62
     7
  6
CONTINUOUS
370
    -3
390
F
  0
LAYER
  5
86
102
{ACAD_XDICTIONARY
360
265
102
}
330
2
100
AcDbSymbolTableRecord
100
AcDbLayerTableRecord
  2
METAL1
 70
     0
 62
     3
  6
CONTINUOUS
370
    -3
390
F
  0
LAYER
  5
87
102
{ACAD_XDICTIONARY
360
267
102
}
330
2
100
AcDbSymbolTableRecord
100
AcDbLayerTableRecord
  2
DIM
 70
     0
 62
     7
  6
CONTINUOUS
370
    -3
390
F
  0
LAYER
  5
88
330
2
100
AcDbSymbolTableRecord
100
AcDbLayerTableRecord
  2
DEFPOINTS
 70
     0
 62
     7
  6
CONTINUOUS
290
     0
370
    -3
390
F
  0
ENDTAB
  0
TABLE
  2
STYLE
  5
3
330
0
100
AcDbSymbolTable
 70
     6
  0
STYLE
  5
5D
330
3
100
AcDbSymbolTableRecord
100
AcDbTextStyleTableRecord
  2
STANDARD
 70
     0
 40
0.0
 41
1.0
 50
0.0
 71
     0
 42
0.2
  3
txt
  4

  0
STYLE
  5
61
330
3
100
AcDbSymbolTableRecord
100
AcDbTextStyleTableRecord
  2
ROMANS
 70
     0
 40
0.18
 41
1.0
 50
0.0
 71
     0
 42
0.18
  3
romans
  4

1001
AcadAnnotative
1000
AnnotativeData
1002
{
1070
     1
1070
     1
1002
}
  0
STYLE
  5
82
330
3
100
AcDbSymbolTableRecord
100
AcDbTextStyleTableRecord
  2
ROMANC
 70
     0
 40
0.25
 41
1.0
 50
0.0
 71
     0
 42
0.25
  3
romanc
  4

  0
STYLE
  5
23D
330
3
100
AcDbSymbolTableRecord
100
AcDbTextStyleTableRecord
  2
ACANSTS
 70
     0
 40
1.0
 41
1.0
 50
0.0
 71
     0
 42
0.18
  3
romans.shx
  4

  0
STYLE
  5
24B
330
3
100
AcDbSymbolTableRecord
100
AcDbTextStyleTableRecord
  2
ACANSGDT
 70
     0
 40
0.0
 41
1.0
 50
0.0
 71
     0
 42
0.18
  3
amgdt.shx
  4

  0
STYLE
  5
323
330
3
100
AcDbSymbolTableRecord
100
AcDbTextStyleTableRecord
  2

 70
     1
 40
0.0
 41
1.0
 50
0.0
 71
     0
 42
0.18
  3
genltshp.shx
  4

  0
ENDTAB
  0
TABLE
  2
VIEW
  5
6
330
0
100
AcDbSymbolTable
 70
     0
  0
ENDTAB
  0
TABLE
  2
UCS
  5
7
330
0
100
AcDbSymbolTable
 70
     0
  0
ENDTAB
  0
TABLE
  2
APPID
  5
9
330
0
100
AcDbSymbolTable
 70
    11
  0
APPID
  5
5E
330
9
100
AcDbSymbolTableRecord
100
AcDbRegAppTableRecord
  2
ACAD
 70
     0
  0
APPID
  5
65
330
9
100
AcDbSymbolTableRecord
100
AcDbRegAppTableRecord
  2
AcadAnnotative
 70
     0
  0
APPID
  5
6F
330
9
100
AcDbSymbolTableRecord
100
AcDbRegAppTableRecord
  2
ACAD_MLEADERVER
 70
     0
  0
APPID
  5
1D4
330
9
100
AcDbSymbolTableRecord
100
AcDbRegAppTableRecord
  2
MCAD_NO_VIS
 70
     0
  0
APPID
  5
1D5
330
9
100
AcDbSymbolTableRecord
100
AcDbRegAppTableRecord
  2
ACAD_TEMP_GRAPHIC
 70
     0
  0
APPID
  5
205
330
9
100
AcDbSymbolTableRecord
100
AcDbRegAppTableRecord
  2
AD_DRAW
 70
     0
  0
APPID
  5
208
330
9
100
AcDbSymbolTableRecord
100
AcDbRegAppTableRecord
  2
ACATTRIBSERVICES
 70
     0
  0
APPID
  5
22D
330
9
100
AcDbSymbolTableRecord
100
AcDbRegAppTableRecord
  2
DESIGNERASSEMBLIES
 70
     0
  0
APPID
  5
233
330
9
100
AcDbSymbolTableRecord
100
AcDbRegAppTableRecord
  2
ACADM_DIM_EDIT
 70
     0
  0
APPID
  5
234
330
9
100
AcDbSymbolTableRecord
100
AcDbRegAppTableRecord
  2
AMDT_DM_ADJ
 70
     0
  0
APPID
  5
283
330
9
100
AcDbSymbolTableRecord
100
AcDbRegAppTableRecord
  2
ACAD_DSTYLE_DIMARC_LENGTH_SYMBOL
 70
     0
  0
ENDTAB
  0
TABLE
  2
DIMSTYLE
  5
A
330
0
100
AcDbSymbolTable
 70
     8
100
AcDbDimStyleTable
 71
     0
  0
DIMSTYLE
105
5F
102
{ACAD_REACTORS
330
193
330
194
330
195
330
196
330
197
330
1A2
330
1A3
330
1B9
330
1C4
330
1C5
102
}
330
A
100
AcDbSymbolTableRecord
100
AcDbDimStyleTableRecord
  2
Standard
 70
     0
340
5D
  0
DIMSTYLE
105
257
330
A
100
AcDbSymbolTableRecord
100
AcDbDimStyleTableRecord
  2
AM_ANSI
 70
     0
  4
mm
 41
0.1
 42
0.05
 43
0.5
 44
0.1
 47
0.1
 48
0.1
 78
     7
 79
     2
140
0.12
141
0.0
146
0.71
147
0.06
176
   256
177
   256
178
     2
274
     4
284
     7
340
5D
371
    -1
372
    -1
1001
ACAD_DSTYLE_DIMARC_LENGTH_SYMBOL
1070
   379
1070
     1
  0
DIMSTYLE
105
258
330
A
100
AcDbSymbolTableRecord
100
AcDbDimStyleTableRecord
  2
AM_ANSI$3
 70
     0
  4
mm
 41
0.1
 42
0.05
 43
0.5
 44
0.1
 47
0.1
 48
0.1
 78
     7
 79
     2
140
0.12
141
0.0
146
0.71
147
0.06
176
   256
177
   256
178
     2
274
     4
284
     7
288
     1
289
     0
340
5D
371
    -1
372
    -1
1001
ACAD_DSTYLE_DIMARC_LENGTH_SYMBOL
1070
   379
1070
     1
  0
DIMSTYLE
105
259
330
A
100
AcDbSymbolTableRecord
100
AcDbDimStyleTableRecord
  2
AM_ANSI$4
 70
     0
  4
mm
 41
0.1
 42
0.05
 43
0.5
 44
0.1
 47
0.1
 48
0.1
 78
     7
 79
     2
140
0.12
141
0.0
146
0.71
147
0.06
176
   256
177
   256
178
     2
274
     4
284
     7
288
     1
289
     0
340
5D
371
    -1
372
    -1
1001
ACAD_DSTYLE_DIMARC_LENGTH_SYMBOL
1070
   379
1070
     1
  0
DIMSTYLE
105
25A
330
A
100
AcDbSymbolTableRecord
100
AcDbDimStyleTableRecord
  2
AM_ANSI$7
 70
     0
  4
mm
 41
0.1
 42
0.05
 43
0.5
 44
0.1
 47
0.1
 48
0.1
 78
     7
 79
     2
140
0.24
141
0.0
146
0.71
147
0.06
176
   256
177
   256
178
     2
274
     4
284
     7
340
5D
371
    -1
372
    -1
1001
ACAD_DSTYLE_DIMARC_LENGTH_SYMBOL
1070
   379
1070
     1
  0
DIMSTYLE
105
25B
330
A
100
AcDbSymbolTableRecord
100
AcDbDimStyleTableRecord
  2
AM_ANSI$SF
 70
     0
  4
mm
 41
0.1
 42
0.05
 43
0.5
 44
0.1
 47
0.1
 48
0.1
 75
     1
 76
     1
 78
     7
 79
     2
140
0.12
141
0.0
146
0.71
147
0.06
176
   256
177
   256
178
     2
274
     4
284
     7
340
5D
371
    -1
372
    -1
1001
ACAD_DSTYLE_DIMARC_LENGTH_SYMBOL
1070
   379
1070
     1
  0
DIMSTYLE
105
260
330
A
100
AcDbSymbolTableRecord
100
AcDbDimStyleTableRecord
  2
AM_ANSI$SH
 70
     0
  4
mm
 41
0.1
 42
0.05
 43
0.5
 44
0.1
 47
0.1
 48
0.1
 75
     1
 76
     1
 78
     7
 79
     2
140
0.12
141
0.0
146
0.71
147
0.06
173
     1
176
   256
177
   256
178
     2
274
     4
284
     7
340
5D
343
25C
371
    -1
372
    -1
1001
ACAD_DSTYLE_DIMARC_LENGTH_SYMBOL
1070
   379
1070
     1
  0
ENDTAB
  0
TABLE
  2
BLOCK_RECORD
  5
1
330
0
100
AcDbSymbolTable
 70
    22
  0
BLOCK_RECORD
  5
74
330
1
100
AcDbSymbolTableRecord
100
AcDbBlockTableRecord
  2
*Model_Space
340
77
  0
BLOCK_RECORD
  5
70
330
1
100
AcDbSymbolTableRecord
100
AcDbBlockTableRecord
  2
*Paper_Space
340
73
  0
BLOCK_RECORD
  5
25C
330
1
100
AcDbSymbolTableRecord
100
AcDbBlockTableRecord
  2
GENAXEH
340
0
  0
BLOCK_RECORD
  5
28E
330
1
100
AcDbSymbolTableRecord
100
AcDbBlockTableRecord
  2
*D11
340
0
  0
BLOCK_RECORD
  5
29B
330
1
100
AcDbSymbolTableRecord
100
AcDbBlockTableRecord
  2
*D12
340
0
  0
BLOCK_RECORD
  5
2A8
330
1
100
AcDbSymbolTableRecord
100
AcDbBlockTableRecord
  2
*D13
340
0
  0
BLOCK_RECORD
  5
2B5
330
1
100
AcDbSymbolTableRecord
100
AcDbBlockTableRecord
  2
*D14
340
0
  0
BLOCK_RECORD
  5
2C2
330
1
100
AcDbSymbolTableRecord
100
AcDbBlockTableRecord
  2
*D15
340
0
  0
BLOCK_RECORD
  5
2CD
330
1
100
AcDbSymbolTableRecord
100
AcDbBlockTableRecord
  2
*D16
340
0
  0
BLOCK_RECORD
  5
2D8
330
1
100
AcDbSymbolTableRecord
100
AcDbBlockTableRecord
  2
*D17
340
0
  0
BLOCK_RECORD
  5
2E3
330
1
100
AcDbSymbolTableRecord
100
AcDbBlockTableRecord
  2
*D18
340
0
  0
BLOCK_RECORD
  5
2F0
330
1
100
AcDbSymbolTableRecord
100
AcDbBlockTableRecord
  2
*D19
340
0
  0
BLOCK_RECORD
  5
2FD
330
1
100
AcDbSymbolTableRecord
100
AcDbBlockTableRecord
  2
*D20
340
0
  0
ENDTAB
  0
ENDSEC
  0
SECTION
  2
BLOCKS
  0
BLOCK
  5
8B
330
74
100
AcDbEntity
  8
0
100
AcDbBlockBegin
  2
*Model_Space
 70
     0
 10
0.0
 20
0.0
 30
0.0
  3
*Model_Space
  1

  0
ENDBLK
  5
8C
330
74
100
AcDbEntity
  8
0
100
AcDbBlockEnd
  0
BLOCK
  5
89
330
70
100
AcDbEntity
 67
     1
  8
0
100
AcDbBlockBegin
  2
*Paper_Space
 70
     0
 10
0.0
 20
0.0
 30
0.0
  3
*Paper_Space
  1

  0
ENDBLK
  5
8A
330
70
100
AcDbEntity
 67
     1
  8
0
100
AcDbBlockEnd
  0
BLOCK
  5
25E
330
25C
100
AcDbEntity
  8
0
100
AcDbBlockBegin
  2
GENAXEH
 70
     0
 10
0.0
 20
0.0
 30
0.0
  3
GENAXEH
  1

  0
LINE
  5
25D
330
25C
100
AcDbEntity
  8
0
100
AcDbLine
 10
-1.0
 20
0.0
 30
0.0
 11
1.0
 21
0.0
 31
0.0
  0
ENDBLK
  5
25F
330
25C
100
AcDbEntity
  8
0
100
AcDbBlockEnd
  0
BLOCK
  5
299
330
28E
100
AcDbEntity
  8
0
100
AcDbBlockBegin
  2
*D11
 70
     1
 10
0.0
 20
0.0
 30
0.0
  3
*D11
  1

  0
LINE
  5
28F
330
28E
100
AcDbEntity
  8
DIM
 62
     0
370
    -2
100
AcDbLine
 10
9.5625
 20
3.9
 30
0.0
 11
10.68
 21
3.9
 31
0.0
  0
LINE
  5
290
330
28E
100
AcDbEntity
  8
DIM
 62
     0
370
    -2
100
AcDbLine
 10
9.5625
 20
2.0
 30
0.0
 11
10.68
 21
2.0
 31
0.0
  0
LINE
  5
291
330
28E
100
AcDbEntity
  8
DIM
 62
     0
370
    -2
100
AcDbLine
 10
10.5
 20
3.72
 30
0.0
 11
10.5
 21
3.13189
 31
0.0
  0
LINE
  5
292
330
28E
100
AcDbEntity
  8
DIM
 62
     0
370
    -2
100
AcDbLine
 10
10.5
 20
2.18
 30
0.0
 11
10.5
 21
2.768110000000001
 31
0.0
  0
SOLID
  5
293
330
28E
100
AcDbEntity
  8
DIM
 62
     0
100
AcDbTrace
 10
10.53
 20
3.72
 30
0.0
 11
10.47
 21
3.72
 31
0.0
 12
10.5
 22
3.9
 32
0.0
 13
10.5
 23
3.9
 33
0.0
  0
SOLID
  5
294
330
28E
100
AcDbEntity
  8
DIM
 62
     0
100
AcDbTrace
 10
10.47
 20
2.18
 30
0.0
 11
10.53
 21
2.18
 31
0.0
 12
10.5
 22
2.0
 32
0.0
 13
10.5
 23
2.0
 33
0.0
  0
MTEXT
  5
295
330
28E
100
AcDbEntity
  8
DIM
 62
     0
100
AcDbMText
 10
10.5
 20
2.95
 30
0.0
 40
0.18
 41
0.0
 71
     5
 72
     1
  1
\A1;1.90
 73
     1
 44
1.0
1001
ACAD
1000
MTEXTBEGIN
1070
    73
1070
     1
1070
    44
1040
1.0
1070
    74
1070
     0
1000
MTEXTEND
  0
POINT
  5
296
330
28E
100
AcDbEntity
  8
DEFPOINTS
 62
     0
100
AcDbPoint
 10
9.5
 20
3.9
 30
0.0
  0
POINT
  5
297
330
28E
100
AcDbEntity
  8
DEFPOINTS
 62
     0
100
AcDbPoint
 10
9.5
 20
2.0
 30
0.0
  0
POINT
  5
298
330
28E
100
AcDbEntity
  8
DEFPOINTS
 62
     0
100
AcDbPoint
 10
10.5
 20
2.0
 30
0.0
  0
ENDBLK
  5
29A
330
28E
100
AcDbEntity
  8
0
100
AcDbBlockEnd
  0
BLOCK
  5
2A6
330
29B
100
AcDbEntity
  8
0
100
AcDbBlockBegin
  2
*D12
 70
     1
 10
0.0
 20
0.0
 30
0.0
  3
*D12
  1

  0
LINE
  5
29C
330
29B
100
AcDbEntity
  8
DIM
 62
     0
370
    -2
100
AcDbLine
 10
5.415899164949397
 20
7.200000000000001
 30
0.0
 11
6.653399164949396
 21
7.200000000000001
 31
0.0
  0
LINE
  5
29D
330
29B
100
AcDbEntity
  8
DIM
 62
     0
370
    -2
100
AcDbLine
 10
5.415899164949396
 20
5.7
 30
0.0
 11
6.653399164949396
 21
5.7
 31
0.0
  0
LINE
  5
29E
330
29B
100
AcDbEntity
  8
DIM
 62
     0
370
    -2
100
AcDbLine
 10
6.473399164949396
 20
7.020000000000001
 30
0.0
 11
6.473399164949396
 21
6.631890000000001
 31
0.0
  0
LINE
  5
29F
330
29B
100
AcDbEntity
  8
DIM
 62
     0
370
    -2
100
AcDbLine
 10
6.473399164949396
 20
5.879999999999999
 30
0.0
 11
6.473399164949396
 21
6.26811
 31
0.0
  0
SOLID
  5
2A0
330
29B
100
AcDbEntity
  8
DIM
 62
     0
100
AcDbTrace
 10
6.503399164949397
 20
7.020000000000001
 30
0.0
 11
6.443399164949396
 21
7.020000000000001
 31
0.0
 12
6.473399164949396
 22
7.200000000000001
 32
0.0
 13
6.473399164949396
 23
7.200000000000001
 33
0.0
  0
SOLID
  5
2A1
330
29B
100
AcDbEntity
  8
DIM
 62
     0
100
AcDbTrace
 10
6.443399164949396
 20
5.879999999999999
 30
0.0
 11
6.503399164949397
 21
5.879999999999999
 31
0.0
 12
6.473399164949396
 22
5.7
 32
0.0
 13
6.473399164949396
 23
5.7
 33
0.0
  0
MTEXT
  5
2A2
330
29B
100
AcDbEntity
  8
DIM
 62
     0
100
AcDbMText
 10
6.473399164949396
 20
6.450000000000001
 30
0.0
 40
0.18
 41
0.0
 71
     5
 72
     1
  1
\A1;1.50
 73
     1
 44
1.0
1001
ACAD
1000
MTEXTBEGIN
1070
    73
1070
     1
1070
    44
1040
1.0
1070
    74
1070
     0
1000
MTEXTEND
  0
POINT
  5
2A3
330
29B
100
AcDbEntity
  8
DEFPOINTS
 62
     0
100
AcDbPoint
 10
5.353399164949398
 20
7.200000000000001
 30
0.0
  0
POINT
  5
2A4
330
29B
100
AcDbEntity
  8
DEFPOINTS
 62
     0
100
AcDbPoint
 10
5.353399164949395
 20
5.7
 30
0.0
  0
POINT
  5
2A5
330
29B
100
AcDbEntity
  8
DEFPOINTS
 62
     0
100
AcDbPoint
 10
6.473399164949396
 20
5.7
 30
0.0
  0
ENDBLK
  5
2A7
330
29B
100
AcDbEntity
  8
0
100
AcDbBlockEnd
  0
BLOCK
  5
2B3
330
2A8
100
AcDbEntity
  8
0
100
AcDbBlockBegin
  2
*D13
 70
     1
 10
0.0
 20
0.0
 30
0.0
  3
*D13
  1

  0
LINE
  5
2A9
330
2A8
100
AcDbEntity
  8
DIM
 62
     0
370
    -2
100
AcDbLine
 10
7.800000000000001
 20
2.206249999999999
 30
0.0
 11
7.800000000000001
 21
0.0790939440389675
 31
0.0
  0
LINE
  5
2AA
330
2A8
100
AcDbEntity
  8
DIM
 62
     0
370
    -2
100
AcDbLine
 10
9.3
 20
2.206249999999999
 30
0.0
 11
9.3
 21
0.0790939440389675
 31
0.0
  0
LINE
  5
2AB
330
2A8
100
AcDbEntity
  8
DIM
 62
     0
370
    -2
100
AcDbLine
 10
7.98
 20
0.2590939440389675
 30
0.0
 11
8.23329
 21
0.2590939440389675
 31
0.0
  0
LINE
  5
2AC
330
2A8
100
AcDbEntity
  8
DIM
 62
     0
370
    -2
100
AcDbLine
 10
9.119999999999999
 20
0.2590939440389675
 30
0.0
 11
8.866710000000002
 21
0.2590939440389675
 31
0.0
  0
SOLID
  5
2AD
330
2A8
100
AcDbEntity
  8
DIM
 62
     0
100
AcDbTrace
 10
7.98
 20
0.2890939440389675
 30
0.0
 11
7.98
 21
0.2290939440389675
 31
0.0
 12
7.800000000000001
 22
0.2590939440389675
 32
0.0
 13
7.800000000000001
 23
0.2590939440389675
 33
0.0
  0
SOLID
  5
2AE
330
2A8
100
AcDbEntity
  8
DIM
 62
     0
100
AcDbTrace
 10
9.119999999999999
 20
0.2290939440389675
 30
0.0
 11
9.119999999999999
 21
0.2890939440389675
 31
0.0
 12
9.3
 22
0.2590939440389675
 32
0.0
 13
9.3
 23
0.2590939440389675
 33
0.0
  0
MTEXT
  5
2AF
330
2A8
100
AcDbEntity
  8
DIM
 62
     0
100
AcDbMText
 10
8.55
 20
0.2590939440389675
 30
0.0
 40
0.18
 41
0.0
 71
     5
 72
     1
  1
\A1;1.50
 73
     1
 44
1.0
1001
ACAD
1000
MTEXTBEGIN
1070
    73
1070
     1
1070
    44
1040
1.0
1070
    74
1070
     0
1000
MTEXTEND
  0
POINT
  5
2B0
330
2A8
100
AcDbEntity
  8
DEFPOINTS
 62
     0
100
AcDbPoint
 10
7.800000000000001
 20
2.268749999999999
 30
0.0
  0
POINT
  5
2B1
330
2A8
100
AcDbEntity
  8
DEFPOINTS
 62
     0
100
AcDbPoint
 10
9.3
 20
2.268749999999999
 30
0.0
  0
POINT
  5
2B2
330
2A8
100
AcDbEntity
  8
DEFPOINTS
 62
     0
100
AcDbPoint
 10
9.3
 20
0.2590939440389675
 30
0.0
  0
ENDBLK
  5
2B4
330
2A8
100
AcDbEntity
  8
0
100
AcDbBlockEnd
  0
BLOCK
  5
2C0
330
2B5
100
AcDbEntity
  8
0
100
AcDbBlockBegin
  2
*D14
 70
     1
 10
0.0
 20
0.0
 30
0.0
  3
*D14
  1

  0
LINE
  5
2B6
330
2B5
100
AcDbEntity
  8
DIM
 62
     0
370
    -2
100
AcDbLine
 10
3.987499999999999
 20
6.262500000000001
 30
0.0
 11
2.601652059010308
 21
6.262500000000001
 31
0.0
  0
LINE
  5
2B7
330
2B5
100
AcDbEntity
  8
DIM
 62
     0
370
    -2
100
AcDbLine
 10
3.987499999999999
 20
6.637499999999998
 30
0.0
 11
2.601652059010308
 21
6.637499999999998
 31
0.0
  0
LINE
  5
2B8
330
2B5
100
AcDbEntity
  8
DIM
 62
     0
370
    -2
100
AcDbLine
 10
2.781652059010308
 20
6.082500000000001
 30
0.0
 11
2.781652059010308
 21
5.902500000000002
 31
0.0
  0
LINE
  5
2B9
330
2B5
100
AcDbEntity
  8
DIM
 62
     0
370
    -2
100
AcDbLine
 10
2.781652059010308
 20
6.817499999999999
 30
0.0
 11
2.781652059010308
 21
6.997499999999998
 31
0.0
  0
SOLID
  5
2BA
330
2B5
100
AcDbEntity
  8
DIM
 62
     0
100
AcDbTrace
 10
2.811652059010308
 20
6.082500000000001
 30
0.0
 11
2.751652059010309
 21
6.082500000000001
 31
0.0
 12
2.781652059010308
 22
6.262500000000001
 32
0.0
 13
2.781652059010308
 23
6.262500000000001
 33
0.0
  0
SOLID
  5
2BB
330
2B5
100
AcDbEntity
  8
DIM
 62
     0
100
AcDbTrace
 10
2.751652059010309
 20
6.817499999999999
 30
0.0
 11
2.811652059010308
 21
6.817499999999999
 31
0.0
 12
2.781652059010308
 22
6.637499999999998
 32
0.0
 13
2.781652059010308
 23
6.637499999999998
 33
0.0
  0
MTEXT
  5
2BC
330
2B5
100
AcDbEntity
  8
DIM
 62
     0
100
AcDbMText
 10
2.781652059010308
 20
6.45
 30
0.0
 40
0.18
 41
0.0
 71
     5
 72
     1
  1
\A1;0.37
 73
     1
 44
1.0
1001
ACAD
1000
MTEXTBEGIN
1070
    73
1070
     1
1070
    44
1040
1.0
1070
    74
1070
     0
1000
MTEXTEND
  0
POINT
  5
2BD
330
2B5
100
AcDbEntity
  8
DEFPOINTS
 62
     0
100
AcDbPoint
 10
4.049999999999999
 20
6.262500000000001
 30
0.0
  0
POINT
  5
2BE
330
2B5
100
AcDbEntity
  8
DEFPOINTS
 62
     0
100
AcDbPoint
 10
4.049999999999999
 20
6.637499999999998
 30
0.0
  0
POINT
  5
2BF
330
2B5
100
AcDbEntity
  8
DEFPOINTS
 62
     0
100
AcDbPoint
 10
2.781652059010308
 20
6.637499999999998
 30
0.0
  0
ENDBLK
  5
2C1
330
2B5
100
AcDbEntity
  8
0
100
AcDbBlockEnd
  0
BLOCK
  5
2CB
330
2C2
100
AcDbEntity
  8
0
100
AcDbBlockBegin
  2
*D15
 70
     1
 10
0.0
 20
0.0
 30
0.0
  3
*D15
  1

  0
LINE
  5
2C3
330
2C2
100
AcDbEntity
  8
DIM
 62
     0
370
    -2
100
AcDbLine
 10
1.844358044084428
 20
4.054360977757745
 30
0.0
 11
1.664358044084428
 21
4.054360977757745
 31
0.0
  0
LINE
  5
2C4
330
2C2
100
AcDbEntity
  8
DIM
 62
     0
370
    -2
100
AcDbLine
 10
1.604187365043185
 20
3.884715791018728
 30
0.0
 11
1.664358044084428
 21
4.054360977757745
 31
0.0
  0
MTEXT
  5
2C5
330
2C2
100
AcDbEntity
  8
DIM
 62
     0
100
AcDbMText
 10
2.575497175862235
 20
4.883797689994728
 30
0.0
 40
0.18
 41
0.0
 71
     5
 72
     1
  1
\A1;%%c0.56
 73
     1
 44
1.0
1001
ACAD
1000
MTEXTBEGIN
1070
    73
1070
     1
1070
    44
1040
1.0
1070
    74
1070
     0
1000
MTEXTEND
  0
SOLID
  5
2C6
330
2C2
100
AcDbEntity
  8
DIM
 62
     0
100
AcDbTrace
 10
1.575913167253349
 20
3.894744237525603
 30
0.0
 11
1.632461562833021
 21
3.874687344511855
 31
0.0
 12
1.544016686001941
 22
3.715070604279713
 32
0.0
 13
1.544016686001941
 23
3.715070604279713
 33
0.0
  0
LINE
  5
2C7
330
2C2
100
AcDbEntity
  8
DIM
 62
     0
370
    -2
100
AcDbLine
 10
1.36
 20
3.45
 30
0.0
 11
1.54
 21
3.45
 31
0.0
  0
LINE
  5
2C8
330
2C2
100
AcDbEntity
  8
DIM
 62
     0
370
    -2
100
AcDbLine
 10
1.449999999999999
 20
3.359999999999999
 30
0.0
 11
1.449999999999999
 21
3.54
 31
0.0
  0
POINT
  5
2C9
330
2C2
100
AcDbEntity
  8
DEFPOINTS
 62
     0
100
AcDbPoint
 10
1.544016686001941
 20
3.715070604279713
 30
0.0
  0
POINT
  5
2CA
330
2C2
100
AcDbEntity
  8
DEFPOINTS
 62
     0
100
AcDbPoint
 10
1.355983313998057
 20
3.184929395720287
 30
0.0
  0
ENDBLK
  5
2CC
330
2C2
100
AcDbEntity
  8
0
100
AcDbBlockEnd
  0
BLOCK
  5
2D6
330
2CD
100
AcDbEntity
  8
0
100
AcDbBlockBegin
  2
*D16
 70
     1
 10
0.0
 20
0.0
 30
0.0
  3
*D16
  1

  0
LINE
  5
2CE
330
2CD
100
AcDbEntity
  8
DIM
 62
     0
370
    -2
100
AcDbLine
 10
4.717302278469466
 20
7.247608819693387
 30
0.0
 11
4.897302278469465
 21
7.247608819693387
 31
0.0
  0
LINE
  5
2CF
330
2CD
100
AcDbEntity
  8
DIM
 62
     0
370
    -2
100
AcDbLine
 10
5.040092029365346
 20
7.138013714697349
 30
0.0
 11
4.897302278469465
 21
7.247608819693387
 31
0.0
  0
MTEXT
  5
2D0
330
2CD
100
AcDbEntity
  8
DIM
 62
     0
100
AcDbMText
 10
6.227235078489522
 20
5.695849642615955
 30
0.0
 40
0.18
 41
0.0
 71
     5
 72
     1
  1
\A1;R .95"
 73
     1
 44
1.0
1001
ACAD
1000
MTEXTBEGIN
1070
    73
1070
     1
1070
    44
1040
1.0
1070
    74
1070
     0
1000
MTEXTEND
  0
SOLID
  5
2D1
330
2CD
100
AcDbEntity
  8
DIM
 62
     0
100
AcDbTrace
 10
5.021826178532672
 20
7.11421542288137
 30
0.0
 11
5.058357880198018
 21
7.161812006513329
 31
0.0
 12
5.182881780261226
 22
7.028418609701312
 32
0.0
 13
5.182881780261226
 23
7.028418609701312
 33
0.0
  0
LINE
  5
2D2
330
2CD
100
AcDbEntity
  8
DIM
 62
     0
370
    -2
100
AcDbLine
 10
5.846494354433926
 20
6.45
 30
0.0
 11
6.026494354433925
 21
6.45
 31
0.0
  0
LINE
  5
2D3
330
2CD
100
AcDbEntity
  8
DIM
 62
     0
370
    -2
100
AcDbLine
 10
5.936494354433925
 20
6.36
 30
0.0
 11
5.936494354433925
 21
6.54
 31
0.0
  0
POINT
  5
2D4
330
2CD
100
AcDbEntity
  8
DEFPOINTS
 62
     0
100
AcDbPoint
 10
5.182881780261226
 20
7.028418609701312
 30
0.0
  0
POINT
  5
2D5
330
2CD
100
AcDbEntity
  8
DEFPOINTS
 62
     0
100
AcDbPoint
 10
5.936494354433925
 20
6.45
 30
0.0
  0
ENDBLK
  5
2D7
330
2CD
100
AcDbEntity
  8
0
100
AcDbBlockEnd
  0
BLOCK
  5
2E1
330
2D8
100
AcDbEntity
  8
0
100
AcDbBlockBegin
  2
*D17
 70
     1
 10
0.0
 20
0.0
 30
0.0
  3
*D17
  1

  0
LINE
  5
2D9
330
2D8
100
AcDbEntity
  8
DIM
 62
     0
370
    -2
100
AcDbLine
 10
5.857967394955682
 20
4.070919359890357
 30
0.0
 11
5.677967394955683
 21
4.070919359890357
 31
0.0
  0
LINE
  5
2DA
330
2D8
100
AcDbEntity
  8
DIM
 62
     0
370
    -2
100
AcDbLine
 10
5.584811569694596
 20
3.916899905859622
 30
0.0
 11
5.677967394955683
 21
4.070919359890357
 31
0.0
  0
MTEXT
  5
2DB
330
2D8
100
AcDbEntity
  8
DIM
 62
     0
100
AcDbMText
 10
6.615961506156869
 20
4.651269559276919
 30
0.0
 40
0.18
 41
0.0
 71
     5
 72
     1
  1
\A1;%%c1.90
 73
     1
 44
1.0
1001
ACAD
1000
MTEXTBEGIN
1070
    73
1070
     1
1070
    44
1040
1.0
1070
    74
1070
     0
1000
MTEXTEND
  0
SOLID
  5
2DC
330
2D8
100
AcDbEntity
  8
DIM
 62
     0
100
AcDbTrace
 10
5.559141660689473
 20
3.932425876736468
 30
0.0
 11
5.610481478699719
 21
3.901373934982773
 31
0.0
 12
5.491655744433511
 22
3.762880451828886
 32
0.0
 13
5.491655744433511
 23
3.762880451828886
 33
0.0
  0
LINE
  5
2DD
330
2D8
100
AcDbEntity
  8
DIM
 62
     0
370
    -2
100
AcDbLine
 10
4.910000000000001
 20
2.95
 30
0.0
 11
5.090000000000001
 21
2.95
 31
0.0
  0
LINE
  5
2DE
330
2D8
100
AcDbEntity
  8
DIM
 62
     0
370
    -2
100
AcDbLine
 10
5.000000000000001
 20
2.859999999999999
 30
0.0
 11
5.000000000000001
 21
3.04
 31
0.0
  0
POINT
  5
2DF
330
2D8
100
AcDbEntity
  8
DEFPOINTS
 62
     0
100
AcDbPoint
 10
5.491655744433511
 20
3.762880451828886
 30
0.0
  0
POINT
  5
2E0
330
2D8
100
AcDbEntity
  8
DEFPOINTS
 62
     0
100
AcDbPoint
 10
4.508344255566493
 20
2.137119548171114
 30
0.0
  0
ENDBLK
  5
2E2
330
2D8
100
AcDbEntity
  8
0
100
AcDbBlockEnd
  0
BLOCK
  5
2EE
330
2E3
100
AcDbEntity
  8
0
100
AcDbBlockBegin
  2
*D18
 70
     1
 10
0.0
 20
0.0
 30
0.0
  3
*D18
  1

  0
LINE
  5
2E4
330
2E3
100
AcDbEntity
  8
DIM
 62
     0
370
    -2
100
AcDbLine
 10
4.154010911219794
 20
3.418767344807754
 30
0.0
 11
4.154010911219794
 21
4.735797294379046
 31
0.0
  0
LINE
  5
2E5
330
2E3
100
AcDbEntity
  8
DIM
 62
     0
370
    -2
100
AcDbLine
 10
4.646992425245268
 20
3.793767344807754
 30
0.0
 11
4.646992425245268
 21
4.735797294379046
 31
0.0
  0
LINE
  5
2E6
330
2E3
100
AcDbEntity
  8
DIM
 62
     0
370
    -2
100
AcDbLine
 10
3.974010911219794
 20
4.555797294379047
 30
0.0
 11
3.794010911219793
 21
4.555797294379047
 31
0.0
  0
LINE
  5
2E7
330
2E3
100
AcDbEntity
  8
DIM
 62
     0
370
    -2
100
AcDbLine
 10
4.826992425245268
 20
4.555797294379047
 30
0.0
 11
5.006992425245268
 21
4.555797294379047
 31
0.0
  0
SOLID
  5
2E8
330
2E3
100
AcDbEntity
  8
DIM
 62
     0
100
AcDbTrace
 10
3.974010911219794
 20
4.525797294379046
 30
0.0
 11
3.974010911219794
 21
4.585797294379046
 31
0.0
 12
4.154010911219794
 22
4.555797294379047
 32
0.0
 13
4.154010911219794
 23
4.555797294379047
 33
0.0
  0
SOLID
  5
2E9
330
2E3
100
AcDbEntity
  8
DIM
 62
     0
100
AcDbTrace
 10
4.826992425245268
 20
4.585797294379046
 30
0.0
 11
4.826992425245268
 21
4.525797294379046
 31
0.0
 12
4.646992425245268
 22
4.555797294379047
 32
0.0
 13
4.646992425245268
 23
4.555797294379047
 33
0.0
  0
MTEXT
  5
2EA
330
2E3
100
AcDbEntity
  8
DIM
 62
     0
100
AcDbMText
 10
4.400501668232531
 20
4.964667294379046
 30
0.0
 40
0.18
 41
0.0
 71
     5
 72
     1
  1
\A1;0.49
 73
     1
 44
1.0
1001
ACAD
1000
MTEXTBEGIN
1070
    73
1070
     1
1070
    44
1040
1.0
1070
    74
1070
     0
1000
MTEXTEND
  0
POINT
  5
2EB
330
2E3
100
AcDbEntity
  8
DEFPOINTS
 62
     0
100
AcDbPoint
 10
4.154010911219794
 20
3.356267344807754
 30
0.0
  0
POINT
  5
2EC
330
2E3
100
AcDbEntity
  8
DEFPOINTS
 62
     0
100
AcDbPoint
 10
4.646992425245268
 20
3.731267344807754
 30
0.0
  0
POINT
  5
2ED
330
2E3
100
AcDbEntity
  8
DEFPOINTS
 62
     0
100
AcDbPoint
 10
4.646992425245268
 20
4.555797294379047
 30
0.0
  0
ENDBLK
  5
2EF
330
2E3
100
AcDbEntity
  8
0
100
AcDbBlockEnd
  0
BLOCK
  5
2FB
330
2F0
100
AcDbEntity
  8
0
100
AcDbBlockBegin
  2
*D19
 70
     1
 10
0.0
 20
0.0
 30
0.0
  3
*D19
  1

  0
LINE
  5
2F1
330
2F0
100
AcDbEntity
  8
DIM
 62
     0
370
    -2
100
AcDbLine
 10
4.049999999999999
 20
2.8875
 30
0.0
 11
4.049999999999999
 21
0.0790939440389675
 31
0.0
  0
LINE
  5
2F2
330
2F0
100
AcDbEntity
  8
DIM
 62
     0
370
    -2
100
AcDbLine
 10
5.550000000000001
 20
2.123301073018291
 30
0.0
 11
5.550000000000001
 21
0.0790939440389675
 31
0.0
  0
LINE
  5
2F3
330
2F0
100
AcDbEntity
  8
DIM
 62
     0
370
    -2
100
AcDbLine
 10
4.23
 20
0.2590939440389675
 30
0.0
 11
4.483290000000001
 21
0.2590939440389675
 31
0.0
  0
LINE
  5
2F4
330
2F0
100
AcDbEntity
  8
DIM
 62
     0
370
    -2
100
AcDbLine
 10
5.37
 20
0.2590939440389675
 30
0.0
 11
5.116709999999999
 21
0.2590939440389675
 31
0.0
  0
SOLID
  5
2F5
330
2F0
100
AcDbEntity
  8
DIM
 62
     0
100
AcDbTrace
 10
4.23
 20
0.2890939440389675
 30
0.0
 11
4.23
 21
0.2290939440389675
 31
0.0
 12
4.049999999999999
 22
0.2590939440389675
 32
0.0
 13
4.049999999999999
 23
0.2590939440389675
 33
0.0
  0
SOLID
  5
2F6
330
2F0
100
AcDbEntity
  8
DIM
 62
     0
100
AcDbTrace
 10
5.37
 20
0.2290939440389675
 30
0.0
 11
5.37
 21
0.2890939440389675
 31
0.0
 12
5.550000000000001
 22
0.2590939440389675
 32
0.0
 13
5.550000000000001
 23
0.2590939440389675
 33
0.0
  0
MTEXT
  5
2F7
330
2F0
100
AcDbEntity
  8
DIM
 62
     0
100
AcDbMText
 10
4.800000000000001
 20
0.2590939440389675
 30
0.0
 40
0.18
 41
0.0
 71
     5
 72
     1
  1
\A1;1.50
 73
     1
 44
1.0
1001
ACAD
1000
MTEXTBEGIN
1070
    73
1070
     1
1070
    44
1040
1.0
1070
    74
1070
     0
1000
MTEXTEND
  0
POINT
  5
2F8
330
2F0
100
AcDbEntity
  8
DEFPOINTS
 62
     0
100
AcDbPoint
 10
4.049999999999999
 20
2.95
 30
0.0
  0
POINT
  5
2F9
330
2F0
100
AcDbEntity
  8
DEFPOINTS
 62
     0
100
AcDbPoint
 10
5.550000000000001
 20
2.185801073018291
 30
0.0
  0
POINT
  5
2FA
330
2F0
100
AcDbEntity
  8
DEFPOINTS
 62
     0
100
AcDbPoint
 10
5.550000000000001
 20
0.2590939440389675
 30
0.0
  0
ENDBLK
  5
2FC
330
2F0
100
AcDbEntity
  8
0
100
AcDbBlockEnd
  0
BLOCK
  5
308
330
2FD
100
AcDbEntity
  8
0
100
AcDbBlockBegin
  2
*D20
 70
     1
 10
0.0
 20
0.0
 30
0.0
  3
*D20
  1

  0
LINE
  5
2FE
330
2FD
100
AcDbEntity
  8
DIM
 62
     0
370
    -2
100
AcDbLine
 10
7.599999999999999
 20
3.962499999999999
 30
0.0
 11
7.599999999999999
 21
5.08
 31
0.0
  0
LINE
  5
2FF
330
2FD
100
AcDbEntity
  8
DIM
 62
     0
370
    -2
100
AcDbLine
 10
9.5
 20
3.962499999999999
 30
0.0
 11
9.5
 21
5.08
 31
0.0
  0
LINE
  5
300
330
2FD
100
AcDbEntity
  8
DIM
 62
     0
370
    -2
100
AcDbLine
 10
7.779999999999998
 20
4.9
 30
0.0
 11
8.23329
 21
4.9
 31
0.0
  0
LINE
  5
301
330
2FD
100
AcDbEntity
  8
DIM
 62
     0
370
    -2
100
AcDbLine
 10
9.32
 20
4.9
 30
0.0
 11
8.866710000000002
 21
4.9
 31
0.0
  0
SOLID
  5
302
330
2FD
100
AcDbEntity
  8
DIM
 62
     0
100
AcDbTrace
 10
7.779999999999998
 20
4.930000000000001
 30
0.0
 11
7.779999999999998
 21
4.87
 31
0.0
 12
7.599999999999999
 22
4.9
 32
0.0
 13
7.599999999999999
 23
4.9
 33
0.0
  0
SOLID
  5
303
330
2FD
100
AcDbEntity
  8
DIM
 62
     0
100
AcDbTrace
 10
9.32
 20
4.87
 30
0.0
 11
9.32
 21
4.930000000000001
 31
0.0
 12
9.5
 22
4.9
 32
0.0
 13
9.5
 23
4.9
 33
0.0
  0
MTEXT
  5
304
330
2FD
100
AcDbEntity
  8
DIM
 62
     0
100
AcDbMText
 10
8.55
 20
4.9
 30
0.0
 40
0.18
 41
0.0
 71
     5
 72
     1
  1
\A1;1.90
 73
     1
 44
1.0
1001
ACAD
1000
MTEXTBEGIN
1070
    73
1070
     1
1070
    44
1040
1.0
1070
    74
1070
     0
1000
MTEXTEND
  0
POINT
  5
305
330
2FD
100
AcDbEntity
  8
DEFPOINTS
 62
     0
100
AcDbPoint
 10
7.599999999999999
 20
3.9
 30
0.0
  0
POINT
  5
306
330
2FD
100
AcDbEntity
  8
DEFPOINTS
 62
     0
100
AcDbPoint
 10
9.5
 20
3.9
 30
0.0
  0
POINT
  5
307
330
2FD
100
AcDbEntity
  8
DEFPOINTS
 62
     0
100
AcDbPoint
 10
9.5
 20
4.9
 30
0.0
  0
ENDBLK
  5
309
330
2FD
100
AcDbEntity
  8
0
100
AcDbBlockEnd
  0
ENDSEC
  0
SECTION
  2
ENTITIES
  0
LINE
  5
FF
330
74
100
AcDbEntity
  8
METAL1
100
AcDbLine
 10
0.5
 20
2.0
 30
0.0
 11
2.399999999999999
 21
2.0
 31
0.0
  0
LINE
  5
100
330
74
100
AcDbEntity
  8
METAL1
100
AcDbLine
 10
2.399999999999999
 20
2.0
 30
0.0
 11
2.399999999999999
 21
3.9
 31
0.0
  0
LINE
  5
101
330
74
100
AcDbEntity
  8
METAL1
100
AcDbLine
 10
2.399999999999999
 20
3.9
 30
0.0
 11
0.5
 21
3.9
 31
0.0
  0
LINE
  5
102
330
74
100
AcDbEntity
  8
METAL1
100
AcDbLine
 10
0.5
 20
3.9
 30
0.0
 11
0.5
 21
2.0
 31
0.0
  0
ARC
  5
103
330
74
100
AcDbEntity
  8
METAL1
100
AcDbCircle
 10
1.449999999999999
 20
2.2
 30
0.0
 40
0.15625
100
AcDbArc
 50
180.0
 51
0.0
  0
ARC
  5
104
330
74
100
AcDbEntity
  8
METAL1
100
AcDbCircle
 10
1.449999999999999
 20
3.45
 30
0.0
 40
0.15625
100
AcDbArc
 50
0.0
 51
180.0
  0
ARC
  5
105
330
74
100
AcDbEntity
  8
METAL1
100
AcDbCircle
 10
1.449999999999999
 20
2.325
 30
0.0
 40
0.15625
100
AcDbArc
 50
180.0
 51
0.0
  0
ARC
  5
106
330
74
100
AcDbEntity
  8
METAL1
100
AcDbCircle
 10
1.449999999999999
 20
3.45
 30
0.0
 40
0.28125
100
AcDbArc
 50
303.7489885958884
 51
236.2510114041115
  0
LINE
  5
107
330
74
100
AcDbEntity
  8
METAL1
100
AcDbLine
 10
1.293749999999999
 20
3.45
 30
0.0
 11
1.293749999999999
 21
2.2
 31
0.0
  0
LINE
  5
108
330
74
100
AcDbEntity
  8
METAL1
100
AcDbLine
 10
1.606249999999999
 20
3.45
 30
0.0
 11
1.606249999999999
 21
2.2
 31
0.0
  0
ARC
  5
109
330
74
100
AcDbEntity
  8
METAL1
 62
     3
100
AcDbCircle
 10
5.0
 20
2.95
 30
0.0
 40
0.95
100
AcDbArc
 50
54.6234598480582
 51
155.459192740939
  0
LINE
  5
10A
330
74
100
AcDbEntity
  8
METAL1
 62
     3
100
AcDbLine
 10
5.550000000000001
 20
2.185801073018291
 30
0.0
 11
5.550000000000001
 21
3.724596669241484
 31
0.0
  0
ARC
  5
10B
330
74
100
AcDbEntity
  8
METAL1
 62
     3
100
AcDbCircle
 10
5.0
 20
2.95
 30
0.0
 40
0.7813
100
AcDbArc
 50
45.25482248700006
 51
105.8563717849611
  0
LINE
  5
10C
330
74
100
AcDbEntity
  8
METAL1
 62
     3
100
AcDbLine
 10
5.099999999999999
 20
3.89472218138456
 30
0.0
 11
5.099999999999999
 21
3.724873983303091
 31
0.0
  0
LINE
  5
10D
330
74
100
AcDbEntity
  8
METAL1
 62
     3
100
AcDbLine
 10
5.099999999999999
 20
2.175126016696907
 30
0.0
 11
5.099999999999999
 21
2.005277818615441
 31
0.0
  0
LINE
  5
10E
330
74
100
AcDbEntity
  8
METAL1
 62
     3
100
AcDbLine
 10
4.765630290871353
 20
2.20468092105263
 30
0.0
 11
4.715024672120549
 21
2.04375
 31
0.0
  0
LINE
  5
10F
330
74
100
AcDbEntity
  8
METAL1
 62
     3
100
AcDbLine
 10
4.527891377747941
 20
3.731256327288921
 30
0.0
 11
4.646992425245268
 21
3.731267344807754
 31
0.0
  0
LINE
  5
110
330
74
100
AcDbEntity
  8
METAL1
 62
     3
100
AcDbLine
 10
4.646992425245268
 20
3.731267344807754
 30
0.0
 11
4.646992425245268
 21
3.356267344807754
 31
0.0
  0
LINE
  5
111
330
74
100
AcDbEntity
  8
METAL1
 62
     3
100
AcDbLine
 10
4.646992425245268
 20
3.356267344807754
 30
0.0
 11
4.154010911219794
 21
3.356267344807754
 31
0.0
  0
ARC
  5
112
330
74
100
AcDbEntity
  8
METAL1
 62
     3
100
AcDbCircle
 10
4.154010911219794
 20
3.336267344807754
 30
0.0
 40
0.02
100
AcDbArc
 50
90.0
 51
155.459192741041
  0
ARC
  5
113
330
74
100
AcDbEntity
  8
METAL1
 62
     3
100
AcDbCircle
 10
4.527889527635113
 20
3.751256327203349
 30
0.0
 40
0.02
100
AcDbArc
 50
120.5071358085389
 51
270.0053001828366
  0
ARC
  5
114
330
74
100
AcDbEntity
  8
METAL1
 62
     3
100
AcDbCircle
 10
5.530000000000001
 20
2.185801073018291
 30
0.0
 40
0.02
100
AcDbArc
 50
304.7427279180054
 51
0.0
  0
LINE
  5
115
330
74
100
AcDbEntity
  8
METAL1
 62
     3
100
AcDbLine
 10
4.771992425245268
 20
3.682332259868875
 30
0.0
 11
4.771992425245268
 21
3.251267344807752
 31
0.0
  0
LINE
  5
116
330
74
100
AcDbEntity
  8
METAL1
 62
     3
100
AcDbLine
 10
4.751992425245268
 20
3.231267344807754
 30
0.0
 11
4.284935622103083
 21
3.231267344807754
 31
0.0
  0
ARC
  5
117
330
74
100
AcDbEntity
  8
METAL1
 62
     3
100
AcDbCircle
 10
4.791992425245267
 20
3.682332259868875
 30
0.0
 40
0.02
100
AcDbArc
 50
105.8563717849618
 51
180.0
  0
ARC
  5
118
330
74
100
AcDbEntity
  8
METAL1
 62
     3
100
AcDbCircle
 10
4.751992425245268
 20
3.251267344807752
 30
0.0
 40
0.02
100
AcDbArc
 50
270.0
 51
0.0
  0
ARC
  5
119
330
74
100
AcDbEntity
  8
METAL1
 62
     3
100
AcDbCircle
 10
4.284935622103083
 20
3.211267344807754
 30
0.0
 40
0.02
100
AcDbArc
 50
90.0
 51
159.9289108470868
  0
ARC
  5
11A
330
74
100
AcDbEntity
  8
METAL1
 62
     3
100
AcDbCircle
 10
5.0
 20
2.95
 30
0.0
 40
0.7813
100
AcDbArc
 50
159.9289108470847
 51
281.5531864135731
  0
ARC
  5
11B
330
74
100
AcDbEntity
  8
METAL1
 62
     3
100
AcDbCircle
 10
5.0
 20
2.95
 30
0.0
 40
0.95
100
AcDbArc
 50
155.459192740939
 51
304.7427279180035
  0
LINE
  5
11C
330
74
100
AcDbEntity
  8
METAL1
 62
     3
100
AcDbLine
 10
4.646992425245268
 20
3.636249999999999
 30
0.0
 11
4.771992425245268
 21
3.636249999999999
 31
0.0
  0
ARC
  5
11D
330
74
100
AcDbEntity
  8
METAL1
 62
     3
100
AcDbCircle
 10
5.0
 20
2.95
 30
0.0
 40
0.6563
100
AcDbArc
 50
154.6234610667511
 51
283.7934642377062
  0
ARC
  5
11E
330
74
100
AcDbEntity
  8
METAL1
 62
     3
100
AcDbCircle
 10
5.161245257256471
 20
2.293203488885416
 30
0.0
 40
0.02
100
AcDbArc
 50
55.22335331929006
 51
103.7934642377082
  0
LINE
  5
11F
330
74
100
AcDbEntity
  8
0
 62
     3
100
AcDbLine
 10
4.834998390068851
 20
3.71367804650921
 30
0.0
 11
5.021086297908659
 21
3.899765954349018
 31
0.0
  0
LINE
  5
120
330
74
100
AcDbEntity
  8
0
 62
     3
100
AcDbLine
 10
4.669181995911323
 20
3.636249999999999
 30
0.0
 11
4.930377342950031
 21
3.897445347038706
 31
0.0
  0
LINE
  5
121
330
74
100
AcDbEntity
  8
0
 62
     3
100
AcDbLine
 10
4.510027054924401
 20
3.742260101958031
 30
0.0
 11
4.559431733203878
 21
3.791664780237509
 31
0.0
  0
LINE
  5
122
330
74
100
AcDbEntity
  8
0
 62
     3
100
AcDbLine
 10
4.746701566881389
 20
2.034390965652014
 30
0.0
 11
4.888943799322835
 21
2.176633198093461
 31
0.0
  0
LINE
  5
123
330
74
100
AcDbEntity
  8
0
 62
     3
100
AcDbLine
 10
4.818247354501687
 20
2.017548405623994
 30
0.0
 11
4.969976045316414
 21
2.169277096438723
 31
0.0
  0
LINE
  5
124
330
74
100
AcDbEntity
  8
0
 62
     3
100
AcDbLine
 10
4.894916993200414
 20
2.005829696674401
 30
0.0
 11
5.060102453904085
 21
2.171015157378073
 31
0.0
  0
LINE
  5
125
330
74
100
AcDbEntity
  8
0
 62
     3
100
AcDbLine
 10
4.977736554222718
 20
2.000260910048389
 30
0.0
 11
5.099999999999999
 21
2.12252435582567
 31
0.0
  0
LINE
  5
126
330
74
100
AcDbEntity
  8
0
 62
     3
100
AcDbLine
 10
5.068324116626233
 20
2.002460124803584
 30
0.0
 11
5.099999999999999
 21
2.034136008177351
 31
0.0
  0
LINE
  5
127
330
74
100
AcDbEntity
  8
0
 62
     3
100
AcDbLine
 10
4.954951288348659
 20
2.065863991822646
 30
0.0
 11
4.844465853788261
 21
2.176349426383044
 31
0.0
  0
LINE
  5
128
330
74
100
AcDbEntity
  8
0
 62
     3
100
AcDbLine
 10
4.929832051237498
 20
2.002594881285488
 30
0.0
 11
4.888660027612417
 21
2.04376690491057
 31
0.0
  0
LINE
  5
129
330
74
100
AcDbEntity
  8
0
 62
     3
100
AcDbLine
 10
4.822368766876178
 20
2.110058165646809
 30
0.0
 11
4.756567282646877
 21
2.17585964987611
 31
0.0
  0
LINE
  5
12A
330
74
100
AcDbEntity
  8
0
 62
     3
100
AcDbLine
 10
4.828414542884282
 20
2.015624041990386
 30
0.0
 11
4.756077506139938
 21
2.087961078734729
 31
0.0
  0
LINE
  5
12B
330
74
100
AcDbEntity
  8
0
 62
     3
100
AcDbLine
 10
4.513009550107063
 20
3.745242597140701
 30
0.0
 11
4.507910452389268
 21
3.750341694858496
 31
0.0
  0
LINE
  5
12C
330
74
100
AcDbEntity
  8
0
 62
     3
100
AcDbLine
 10
4.615376074779119
 20
3.731264420116962
 30
0.0
 11
4.556511023883793
 21
3.790129471012288
 31
0.0
  0
LINE
  5
12D
330
74
100
AcDbEntity
  8
0
 62
     3
100
AcDbLine
 10
4.814466044601523
 20
3.708951145591197
 30
0.0
 11
4.800271679964098
 21
3.723145510228622
 31
0.0
  0
LINE
  5
12E
330
74
100
AcDbEntity
  8
0
 62
     3
100
AcDbLine
 10
4.73398041922786
 20
3.789436770964859
 30
0.0
 11
4.679215235875152
 21
3.844201954317568
 31
0.0
  0
LINE
  5
12F
330
74
100
AcDbEntity
  8
0
 62
     3
100
AcDbLine
 10
4.866562940700338
 20
3.745242597140701
 30
0.0
 11
4.75607750613994
 21
3.855728031701098
 31
0.0
  0
LINE
  5
130
330
74
100
AcDbEntity
  8
0
 62
     3
100
AcDbLine
 10
4.969489831683256
 20
3.730704053806099
 30
0.0
 11
4.888660027612417
 21
3.811533857876939
 31
0.0
  0
LINE
  5
131
330
74
100
AcDbEntity
  8
0
 62
     3
100
AcDbLine
 10
4.822368766876178
 20
3.877825118613178
 30
0.0
 11
4.817824761899811
 21
3.882369123589545
 31
0.0
  0
LINE
  5
132
330
74
100
AcDbEntity
  8
0
 62
     3
100
AcDbLine
 10
5.059555373881995
 20
3.72902685925568
 30
0.0
 11
5.021242549084896
 21
3.767339684052779
 31
0.0
  0
LINE
  5
133
330
74
100
AcDbEntity
  8
0
 62
     3
100
AcDbLine
 10
4.954951288348657
 20
3.833630944789018
 30
0.0
 11
4.894462611658469
 21
3.894119621479206
 31
0.0
  0
LINE
  5
134
330
74
100
AcDbEntity
  8
0
 62
     3
100
AcDbLine
 10
5.087533809821133
 20
3.789436770964859
 30
0.0
 11
4.977243184452636
 21
3.899727396333356
 31
0.0
  0
LINE
  5
135
330
74
100
AcDbEntity
  8
0
 62
     3
100
AcDbLine
 10
4.758974183410658
 20
3.664804668992124
 30
0.0
 11
4.651592279115099
 21
3.772186573287683
 31
0.0
  0
LINE
  5
136
330
74
100
AcDbEntity
  8
METAL1
100
AcDbLine
 10
5.274280025161456
 20
2.218426245825185
 30
0.0
 11
5.172652833780101
 21
2.309631124073034
 31
0.0
  0
LINE
  5
137
330
74
100
AcDbEntity
  8
METAL1
100
AcDbLine
 10
5.156476803692771
 20
2.312626718550196
 30
0.0
 11
5.156476803692771
 21
2.184529752435736
 31
0.0
  0
ARC
  5
138
330
74
100
AcDbEntity
  8
METAL1
 62
     3
100
AcDbCircle
 10
5.0
 20
2.95
 30
0.0
 40
0.7813
100
AcDbArc
 50
290.5519162304653
 51
314.7451775129999
  0
LINE
  5
139
330
74
100
AcDbEntity
  8
METAL1
100
AcDbLine
 10
9.004999999999997
 20
2.168750000000001
 30
0.0
 11
9.199999999999999
 21
2.16875
 31
0.0
  0
LINE
  5
13A
330
74
100
AcDbEntity
  8
METAL1
100
AcDbLine
 10
8.39375
 20
3.216146413326628
 30
0.0
 11
8.094999999999998
 21
3.216146413326628
 31
0.0
  0
ARC
  5
13B
330
74
100
AcDbEntity
  8
METAL1
100
AcDbCircle
 10
8.255
 20
2.300465728752537
 30
0.0
 40
0.02
100
AcDbArc
 50
0.0
 51
135.0
  0
LINE
  5
13C
330
74
100
AcDbEntity
  8
METAL1
100
AcDbLine
 10
8.095
 20
2.16875
 30
0.0
 11
8.24085786437627
 21
2.314607864376268
 31
0.0
  0
ARC
  5
13D
330
74
100
AcDbEntity
  8
METAL1
100
AcDbCircle
 10
8.844999999999997
 20
2.300465728752537
 30
0.0
 40
0.02
100
AcDbArc
 50
45.0
 51
180.0
  0
LINE
  5
13E
330
74
100
AcDbEntity
  8
METAL1
100
AcDbLine
 10
9.004999999999997
 20
2.16875
 30
0.0
 11
8.859142135623731
 21
2.314607864376268
 31
0.0
  0
LINE
  5
13F
330
74
100
AcDbEntity
  8
METAL1
100
AcDbLine
 10
9.004999999999997
 20
3.216146413326628
 30
0.0
 11
8.70625
 21
3.216146413326628
 31
0.0
  0
ARC
  5
140
330
74
100
AcDbEntity
  8
METAL1
100
AcDbCircle
 10
8.294999999999998
 20
3.196146413326629
 30
0.0
 40
0.02
100
AcDbArc
 50
90.0
 51
180.0
  0
LINE
  5
141
330
74
100
AcDbEntity
  8
METAL1
100
AcDbLine
 10
8.274999999999998
 20
2.185248058978043
 30
0.0
 11
8.274999999999998
 21
3.196146413326629
 31
0.0
  0
LINE
  5
142
330
74
100
AcDbEntity
  8
METAL1
100
AcDbLine
 10
8.094999999999998
 20
2.16875
 30
0.0
 11
8.094999999999998
 21
3.731250000000001
 31
0.0
  0
ARC
  5
143
330
74
100
AcDbEntity
  8
METAL1
100
AcDbCircle
 10
8.804999999999999
 20
3.196146413326629
 30
0.0
 40
0.02
100
AcDbArc
 50
0.0
 51
90.0
  0
LINE
  5
144
330
74
100
AcDbEntity
  8
METAL1
100
AcDbLine
 10
8.70625
 20
3.216146413326628
 30
0.0
 11
8.804999999999999
 21
3.216146413326628
 31
0.0
  0
ARC
  5
145
330
74
100
AcDbEntity
  8
METAL1
100
AcDbCircle
 10
7.899999999999998
 20
3.63125
 30
0.0
 40
0.1
100
AcDbArc
 50
90.00000000000005
 51
180.0
  0
ARC
  5
146
330
74
100
AcDbEntity
  8
METAL1
100
AcDbCircle
 10
7.899999999999998
 20
2.268749999999999
 30
0.0
 40
0.1
100
AcDbArc
 50
180.0
 51
270.0
  0
ARC
  5
147
330
74
100
AcDbEntity
  8
METAL1
100
AcDbCircle
 10
9.199999999999999
 20
2.268749999999999
 30
0.0
 40
0.1
100
AcDbArc
 50
270.0
 51
0.0
  0
ARC
  5
148
330
74
100
AcDbEntity
  8
METAL1
100
AcDbCircle
 10
9.199999999999999
 20
3.63125
 30
0.0
 40
0.1
100
AcDbArc
 50
0.0
 51
90.0
  0
LINE
  5
149
330
74
100
AcDbEntity
  8
METAL1
100
AcDbLine
 10
7.899999999999998
 20
2.16875
 30
0.0
 11
8.095
 21
2.16875
 31
0.0
  0
LINE
  5
14A
330
74
100
AcDbEntity
  8
METAL1
100
AcDbLine
 10
7.899999999999998
 20
3.731250000000001
 30
0.0
 11
8.095000000000009
 21
3.731250000000001
 31
0.0
  0
LINE
  5
14B
330
74
100
AcDbEntity
  8
METAL1
100
AcDbLine
 10
9.3
 20
2.268749999999999
 30
0.0
 11
9.3
 21
3.63125
 31
0.0
  0
LINE
  5
14C
330
74
100
AcDbEntity
  8
METAL1
100
AcDbLine
 10
7.800000000000001
 20
2.268749999999999
 30
0.0
 11
7.799999999999998
 21
3.63125
 31
0.0
  0
LINE
  5
14D
330
74
100
AcDbEntity
  8
METAL1
100
AcDbLine
 10
9.004999999999997
 20
2.16875
 30
0.0
 11
9.004999999999997
 21
3.731250000000001
 31
0.0
  0
LINE
  5
14E
330
74
100
AcDbEntity
  8
METAL1
100
AcDbLine
 10
8.824999999999999
 20
2.185248058978043
 30
0.0
 11
8.824999999999999
 21
3.196146413326629
 31
0.0
  0
LINE
  5
14F
330
74
100
AcDbEntity
  8
METAL1
100
AcDbLine
 10
8.39375
 20
3.45
 30
0.0
 11
8.39375
 21
2.3875
 31
0.0
  0
LINE
  5
150
330
74
100
AcDbEntity
  8
METAL1
100
AcDbLine
 10
8.70625
 20
3.45
 30
0.0
 11
8.70625
 21
2.3875
 31
0.0
  0
ARC
  5
151
330
74
100
AcDbEntity
  8
METAL1
100
AcDbCircle
 10
8.55
 20
2.3875
 30
0.0
 40
0.15625
100
AcDbArc
 50
180.0
 51
0.0
  0
ARC
  5
152
330
74
100
AcDbEntity
  8
METAL1
100
AcDbCircle
 10
8.55
 20
3.45
 30
0.0
 40
0.15625
100
AcDbArc
 50
0.0
 51
180.0
  0
LINE
  5
153
330
74
100
AcDbEntity
  8
METAL1
100
AcDbLine
 10
9.5
 20
3.9
 30
0.0
 11
9.5
 21
2.0
 31
0.0
  0
LINE
  5
154
330
74
100
AcDbEntity
  8
METAL1
100
AcDbLine
 10
7.599999999999999
 20
3.9
 30
0.0
 11
9.5
 21
3.9
 31
0.0
  0
LINE
  5
155
330
74
100
AcDbEntity
  8
METAL1
100
AcDbLine
 10
7.599999999999999
 20
2.0
 30
0.0
 11
7.599999999999999
 21
3.9
 31
0.0
  0
LINE
  5
156
330
74
100
AcDbEntity
  8
METAL1
100
AcDbLine
 10
9.5
 20
2.0
 30
0.0
 11
7.599999999999999
 21
2.0
 31
0.0
  0
ARC
  5
157
330
74
100
AcDbEntity
  8
METAL1
100
AcDbCircle
 10
8.55
 20
-1.805287619348864
 30
0.0
 40
4.0
100
AcDbArc
 50
86.05780548467805
 51
93.94219451532199
  0
ARC
  5
158
330
74
100
AcDbEntity
  8
METAL1
100
AcDbCircle
 10
8.55
 20
7.705287619348866
 30
0.0
 40
4.0
100
AcDbArc
 50
263.4684677791224
 51
276.5315322208776
  0
LINE
  5
159
330
74
100
AcDbEntity
  8
METAL1
100
AcDbLine
 10
9.004999999999991
 20
3.731250000000001
 30
0.0
 11
9.199999999999999
 21
3.731250000000001
 31
0.0
  0
ARC
  5
15A
330
74
100
AcDbEntity
  8
METAL1
100
AcDbCircle
 10
8.058989163805772
 20
2.498315273009618
 30
0.0
 40
0.5
100
AcDbArc
 50
203.3677059103976
 51
274.7047810254551
  0
ARC
  5
15B
330
74
100
AcDbEntity
  8
METAL1
100
AcDbCircle
 10
8.058989163805772
 20
3.401684726990383
 30
0.0
 40
0.5
100
AcDbArc
 50
85.29521897454488
 51
156.6322940896031
  0
ARC
  5
15C
330
74
100
AcDbEntity
  8
METAL1
100
AcDbCircle
 10
9.04101083619423
 20
3.401684726990383
 30
0.0
 40
0.5
100
AcDbArc
 50
23.36770591039615
 51
94.70478102545513
  0
ARC
  5
15D
330
74
100
AcDbEntity
  8
METAL1
100
AcDbCircle
 10
9.04101083619423
 20
2.498315273009618
 30
0.0
 40
0.5
100
AcDbArc
 50
265.2952189745449
 51
336.6322940896032
  0
LINE
  5
15E
330
74
100
AcDbEntity
  8
METAL1
100
AcDbLine
 10
4.049999999999999
 20
5.5
 30
0.0
 11
4.049999999999999
 21
6.262500000000001
 31
0.0
  0
LINE
  5
15F
330
74
100
AcDbEntity
  8
METAL1
100
AcDbLine
 10
4.049999999999999
 20
7.4
 30
0.0
 11
5.500604460079846
 21
7.4
 31
0.0
  0
LINE
  5
160
330
74
100
AcDbEntity
  8
METAL1
100
AcDbLine
 10
5.500604460079848
 20
5.5
 30
0.0
 11
4.049999999999999
 21
5.5
 31
0.0
  0
ARC
  5
161
330
74
100
AcDbEntity
  8
METAL1
100
AcDbCircle
 10
5.936494354433925
 20
6.45
 30
0.0
 40
0.95
100
AcDbArc
 50
115.8419327631678
 51
244.1580672368324
  0
ARC
  5
162
330
74
100
AcDbEntity
  8
METAL1
100
AcDbCircle
 10
5.500604460079846
 20
7.349999999999999
 30
0.0
 40
0.05
100
AcDbArc
 50
295.8419327631669
 51
90.0
  0
ARC
  5
163
330
74
100
AcDbEntity
  8
METAL1
100
AcDbCircle
 10
5.500604460079848
 20
5.549999999999999
 30
0.0
 40
0.05
100
AcDbArc
 50
270.0
 51
64.15806723683303
  0
LINE
  5
164
330
74
100
AcDbEntity
  8
METAL1
100
AcDbLine
 10
4.291414735853432
 20
6.637499999999998
 30
0.0
 11
4.050000000000001
 21
6.637499999999998
 31
0.0
  0
LINE
  5
165
330
74
100
AcDbEntity
  8
METAL1
100
AcDbLine
 10
4.291414735853431
 20
6.2625
 30
0.0
 11
4.049999999999999
 21
6.262500000000001
 31
0.0
  0
POLYLINE
  5
166
330
74
100
AcDbEntity
  8
METAL1
100
AcDb2dPolyline
 66
     1
 10
0.0
 20
0.0
 30
0.0
  0
VERTEX
  5
167
330
166
100
AcDbEntity
  8
METAL1
100
AcDbVertex
100
AcDb2dVertex
 10
4.362499999999999
 20
6.450000000000001
 30
0.0
 42
0.0510992989620822
  0
VERTEX
  5
168
330
166
100
AcDbEntity
  8
METAL1
100
AcDbVertex
100
AcDb2dVertex
 10
4.35084486865249
 20
6.563746161132738
 30
0.0
 42
0.0649481016502883
  0
VERTEX
  5
169
330
166
100
AcDbEntity
  8
METAL1
100
AcDbVertex
100
AcDb2dVertex
 10
4.321311891104357
 20
6.648873782208719
 30
0.0
 42
0.1042029417664244
 70
     2
 50
116.5650511770779
  0
VERTEX
  5
16A
330
166
100
AcDbEntity
  8
METAL1
100
AcDbVertex
100
AcDb2dVertex
 10
4.269512710003653
 20
6.714080924515128
 30
0.0
 42
0.1747045211890472
 50
116.5650511770779
  0
VERTEX
  5
16B
330
166
100
AcDbEntity
  8
METAL1
100
AcDbVertex
100
AcDb2dVertex
 10
4.221874999999999
 20
6.731250000000001
 30
0.0
 42
0.1747045211890394
  0
VERTEX
  5
16C
330
166
100
AcDbEntity
  8
METAL1
100
AcDbVertex
100
AcDb2dVertex
 10
4.174237289996348
 20
6.714080924515129
 30
0.0
 42
0.1042029417664301
  0
VERTEX
  5
16D
330
166
100
AcDbEntity
  8
METAL1
100
AcDbVertex
100
AcDb2dVertex
 10
4.122438108895642
 20
6.648873782208719
 30
0.0
 42
0.0090478215307531
 70
     2
 50
243.4349488229221
  0
VERTEX
  5
16E
330
166
100
AcDbEntity
  8
METAL1
100
AcDbVertex
100
AcDb2dVertex
 10
4.117006201496856
 20
6.637499999999998
 30
0.0
 42
0.0510992989620768
 50
243.4349488229221
  0
SEQEND
  5
16F
330
166
100
AcDbEntity
  8
METAL1
  0
POLYLINE
  5
170
330
74
100
AcDbEntity
  8
METAL1
100
AcDb2dPolyline
 66
     1
 10
0.0
 20
0.0
 30
0.0
  0
VERTEX
  5
171
330
170
100
AcDbEntity
  8
METAL1
100
AcDbVertex
100
AcDb2dVertex
 10
4.117006201496856
 20
6.262500000000001
 30
0.0
 42
0.0090478215307502
  0
VERTEX
  5
172
330
170
100
AcDbEntity
  8
METAL1
100
AcDbVertex
100
AcDb2dVertex
 10
4.122438108895642
 20
6.251126217791285
 30
0.0
 42
0.1042029417664301
 70
     2
 50
296.5650511770779
  0
VERTEX
  5
173
330
170
100
AcDbEntity
  8
METAL1
100
AcDbVertex
100
AcDb2dVertex
 10
4.174237289996348
 20
6.185919075484875
 30
0.0
 42
0.1747045211890394
 50
296.5650511770779
  0
VERTEX
  5
174
330
170
100
AcDbEntity
  8
METAL1
100
AcDbVertex
100
AcDb2dVertex
 10
4.221874999999999
 20
6.168750000000001
 30
0.0
 42
0.1747045211890363
  0
VERTEX
  5
175
330
170
100
AcDbEntity
  8
METAL1
100
AcDbVertex
100
AcDb2dVertex
 10
4.269512710003652
 20
6.185919075484875
 30
0.0
 42
0.1042029417664258
  0
VERTEX
  5
176
330
170
100
AcDbEntity
  8
METAL1
100
AcDbVertex
100
AcDb2dVertex
 10
4.321311891104357
 20
6.251126217791285
 30
0.0
 42
0.0649481016502919
 70
     2
 50
63.43494882292206
  0
VERTEX
  5
177
330
170
100
AcDbEntity
  8
METAL1
100
AcDbVertex
100
AcDb2dVertex
 10
4.350844868652491
 20
6.336253838867268
 30
0.0
 42
0.0510992989620803
 50
63.43494882292206
  0
VERTEX
  5
178
330
170
100
AcDbEntity
  8
METAL1
100
AcDbVertex
100
AcDb2dVertex
 10
4.362499999999999
 20
6.450000000000001
 30
0.0
 42
0.0510992989620822
  0
SEQEND
  5
179
330
170
100
AcDbEntity
  8
METAL1
  0
LINE
  5
17A
330
74
100
AcDbEntity
  8
METAL1
100
AcDbLine
 10
4.049999999999999
 20
6.637499999999998
 30
0.0
 11
4.049999999999999
 21
7.4
 31
0.0
  0
POLYLINE
  5
17B
330
74
100
AcDbEntity
  8
METAL1
100
AcDb2dPolyline
 66
     1
 10
0.0
 20
0.0
 30
0.0
  0
VERTEX
  5
17C
330
17B
100
AcDbEntity
  8
METAL1
100
AcDbVertex
100
AcDb2dVertex
 10
4.291414735853431
 20
6.262500000000001
 30
0.0
 42
0.2104266262671114
  0
VERTEX
  5
17D
330
17B
100
AcDbEntity
  8
METAL1
100
AcDbVertex
100
AcDb2dVertex
 10
4.313995042356406
 20
6.27244327744678
 30
0.0
 42
0.094987696030376
  0
VERTEX
  5
17E
330
17B
100
AcDbEntity
  8
METAL1
100
AcDbVertex
100
AcDb2dVertex
 10
4.341679608173906
 20
6.317417478527523
 30
0.0
 42
0.0516994721114769
 70
     2
 50
69.23720955445445
  0
VERTEX
  5
17F
330
17B
100
AcDbEntity
  8
METAL1
100
AcDbVertex
100
AcDb2dVertex
 10
4.356524420313139
 20
6.373429675557098
 30
0.0
 42
0.0389609751152191
 50
69.23720955445445
  0
VERTEX
  5
180
330
17B
100
AcDbEntity
  8
METAL1
100
AcDbVertex
100
AcDb2dVertex
 10
4.362499999999999
 20
6.450000000000001
 30
0.0
 42
0.038960975115231
  0
VERTEX
  5
181
330
17B
100
AcDbEntity
  8
METAL1
100
AcDbVertex
100
AcDb2dVertex
 10
4.356524420313136
 20
6.526570324442907
 30
0.0
 42
0.0516994721114859
  0
VERTEX
  5
182
330
17B
100
AcDbEntity
  8
METAL1
100
AcDbVertex
100
AcDb2dVertex
 10
4.341679608173906
 20
6.582582521472478
 30
0.0
 42
0.0949876960303732
 70
     2
 50
110.7627904455455
  0
VERTEX
  5
183
330
17B
100
AcDbEntity
  8
METAL1
100
AcDbVertex
100
AcDb2dVertex
 10
4.313995042356408
 20
6.627556722553221
 30
0.0
 42
0.2104266262671038
 50
110.7627904455455
  0
VERTEX
  5
184
330
17B
100
AcDbEntity
  8
METAL1
100
AcDbVertex
100
AcDb2dVertex
 10
4.291414735853431
 20
6.637499999999998
 30
0.0
 42
0.2104266262671114
  0
SEQEND
  5
185
330
17B
100
AcDbEntity
  8
METAL1
  0
LINE
  5
186
330
74
100
AcDbEntity
  8
METAL1
  6
HIDDEN2
100
AcDbLine
 10
4.673994354433924
 20
6.105000000000001
 30
0.0
 11
4.673994354433924
 21
6.794999999999999
 31
0.0
  0
LINE
  5
187
330
74
100
AcDbEntity
  8
METAL1
  6
HIDDEN2
100
AcDbLine
 10
5.063639841929115
 20
6.824999999999998
 30
0.0
 11
4.25
 21
6.824999999999998
 31
0.0
  0
LINE
  5
188
330
74
100
AcDbEntity
  8
METAL1
  6
HIDDEN2
100
AcDbLine
 10
5.063639841929115
 20
6.075000000000001
 30
0.0
 11
4.25
 21
6.075000000000001
 31
0.0
  0
ARC
  5
189
330
74
100
AcDbEntity
  8
METAL1
  6
HIDDEN2
100
AcDbCircle
 10
4.643994354433924
 20
6.794999999999999
 30
0.0
 40
0.03
100
AcDbArc
 50
0.0
 51
90.0
  0
ARC
  5
18A
330
74
100
AcDbEntity
  8
METAL1
  6
HIDDEN2
100
AcDbCircle
 10
4.643994354433924
 20
6.105000000000001
 30
0.0
 40
0.03
100
AcDbArc
 50
270.0
 51
0.0
  0
LINE
  5
18B
330
74
100
AcDbEntity
  8
METAL1
  6
HIDDEN2
100
AcDbLine
 10
5.019979215442755
 20
6.200000000000001
 30
0.0
 11
4.25
 21
6.200000000000001
 31
0.0
  0
LINE
  5
18C
330
74
100
AcDbEntity
  8
METAL1
  6
HIDDEN2
100
AcDbLine
 10
5.019979215442758
 20
6.699999999999998
 30
0.0
 11
4.25
 21
6.700000000000001
 31
0.0
  0
LINE
  5
18D
330
74
100
AcDbEntity
  8
METAL1
  6
HIDDEN2
100
AcDbLine
 10
4.25
 20
6.637499999999998
 30
0.0
 11
4.25
 21
7.170000000000002
 31
0.0
  0
LINE
  5
18E
330
74
100
AcDbEntity
  8
METAL1
  6
HIDDEN2
100
AcDbLine
 10
4.25
 20
5.730000000000001
 30
0.0
 11
4.25
 21
6.262500000000001
 31
0.0
  0
LINE
  5
18F
330
74
100
AcDbEntity
  8
METAL1
  6
HIDDEN2
100
AcDbLine
 10
5.353399164949395
 20
5.7
 30
0.0
 11
4.28
 21
5.700000000000001
 31
0.0
  0
LINE
  5
190
330
74
100
AcDbEntity
  8
METAL1
  6
HIDDEN2
100
AcDbLine
 10
4.28
 20
7.200000000000001
 30
0.0
 11
5.353399164949398
 21
7.200000000000001
 31
0.0
  0
ARC
  5
191
330
74
100
AcDbEntity
  8
METAL1
  6
HIDDEN2
100
AcDbCircle
 10
4.28
 20
7.170000000000002
 30
0.0
 40
0.03
100
AcDbArc
 50
90.0
 51
180.0
  0
ARC
  5
192
330
74
100
AcDbEntity
  8
METAL1
  6
HIDDEN2
100
AcDbCircle
 10
4.28
 20
5.730000000000001
 30
0.0
 40
0.03
100
AcDbArc
 50
180.0
 51
270.0
  0
DIMENSION
  5
193
330
74
100
AcDbEntity
  8
DIM
100
AcDbDimension
  2
*D11
 10
10.5
 20
2.0
 30
0.0
 11
10.5
 21
2.95
 31
0.0
 70
    32
 71
     5
 42
1.9
  3
Standard
100
AcDbAlignedDimension
 13
9.5
 23
3.9
 33
0.0
 14
9.5
 24
2.0
 34
0.0
 50
270.0
100
AcDbRotatedDimension
1001
ACAD
1000
DSTYLE
1002
{
1070
   271
1070
     2
1070
   272
1070
     2
1070
   279
1070
     2
1002
}
  0
DIMENSION
  5
194
330
74
100
AcDbEntity
  8
DIM
100
AcDbDimension
  2
*D12
 10
6.473399164949396
 20
5.7
 30
0.0
 11
6.473399164949396
 21
6.450000000000001
 31
0.0
 70
    32
 71
     5
 42
1.5
  3
Standard
100
AcDbAlignedDimension
 13
5.353399164949398
 23
7.200000000000001
 33
0.0
 14
5.353399164949395
 24
5.7
 34
0.0
 50
90.0
100
AcDbRotatedDimension
1001
ACAD
1000
DSTYLE
1002
{
1070
   271
1070
     2
1070
   272
1070
     2
1070
   279
1070
     2
1002
}
  0
DIMENSION
  5
195
330
74
100
AcDbEntity
  8
DIM
100
AcDbDimension
  2
*D13
 10
9.3
 20
0.2590939440389675
 30
0.0
 11
8.55
 21
0.2590939440389675
 31
0.0
 70
    32
 71
     5
 42
1.5
  3
Standard
100
AcDbAlignedDimension
 13
7.800000000000001
 23
2.268749999999999
 33
0.0
 14
9.3
 24
2.268749999999999
 34
0.0
100
AcDbRotatedDimension
1001
ACAD
1000
DSTYLE
1002
{
1070
   271
1070
     2
1070
   272
1070
     2
1070
   279
1070
     2
1002
}
  0
DIMENSION
  5
196
330
74
100
AcDbEntity
  8
DIM
100
AcDbDimension
  2
*D14
 10
2.781652059010308
 20
6.637499999999998
 30
0.0
 11
2.781652059010308
 21
6.45
 31
0.0
 70
    32
 71
     5
 42
0.3749999999999982
  3
Standard
100
AcDbAlignedDimension
 13
4.049999999999999
 23
6.262500000000001
 33
0.0
 14
4.049999999999999
 24
6.637499999999998
 34
0.0
 50
90.0
100
AcDbRotatedDimension
1001
ACAD
1000
DSTYLE
1002
{
1070
   271
1070
     2
1070
   272
1070
     2
1070
   279
1070
     2
1002
}
  0
DIMENSION
  5
197
330
74
100
AcDbEntity
  8
DIM
100
AcDbDimension
  2
*D15
 10
1.355983313998057
 20
3.184929395720287
 30
0.0
 11
2.575497175862235
 21
4.883797689994728
 31
0.0
 70
    35
 71
     5
 42
0.5624999999999997
  3
Standard
100
AcDbDiametricDimension
 15
1.544016686001941
 25
3.715070604279713
 35
0.0
 40
1.240063920895905
1001
ACAD
1000
DSTYLE
1002
{
1070
   271
1070
     2
1070
   272
1070
     2
1070
   279
1070
     2
1002
}
  0
LINE
  5
198
330
74
100
AcDbEntity
  8
0
  6
ByBlock
 62
     0
100
AcDbLine
 10
8.274999999999998
 20
2.122748058978043
 30
0.0
 11
8.274999999999998
 21
0.8200000000000001
 31
0.0
  0
LINE
  5
199
330
74
100
AcDbEntity
  8
0
  6
ByBlock
 62
     0
100
AcDbLine
 10
8.825000000000002
 20
2.122748058978043
 30
0.0
 11
8.825000000000002
 21
0.8200000000000001
 31
0.0
  0
LINE
  5
19A
330
74
100
AcDbEntity
  8
0
  6
ByBlock
 62
     0
100
AcDbLine
 10
8.094999999999998
 20
1.0
 30
0.0
 11
7.914999999999997
 21
1.0
 31
0.0
  0
LINE
  5
19B
330
74
100
AcDbEntity
  8
0
  6
ByBlock
 62
     0
100
AcDbLine
 10
9.005
 20
1.0
 30
0.0
 11
9.185
 21
1.0
 31
0.0
  0
SOLID
  5
19C
330
74
100
AcDbEntity
  8
0
  6
ByBlock
 62
     0
100
AcDbTrace
 10
8.094999999999998
 20
1.03
 30
0.0
 11
8.094999999999998
 21
0.9699999999999999
 31
0.0
 12
8.274999999999998
 22
1.0
 32
0.0
 13
8.274999999999998
 23
1.0
 33
0.0
  0
SOLID
  5
19D
330
74
100
AcDbEntity
  8
0
  6
ByBlock
 62
     0
100
AcDbTrace
 10
9.005
 20
1.03
 30
0.0
 11
9.005
 21
0.9699999999999999
 31
0.0
 12
8.825000000000002
 22
1.0
 32
0.0
 13
8.825000000000002
 23
1.0
 33
0.0
  0
POINT
  5
19E
330
74
100
AcDbEntity
  8
DEFPOINTS
  6
ByBlock
 62
     0
100
AcDbPoint
 10
8.274999999999998
 20
2.185248058978043
 30
0.0
  0
POINT
  5
19F
330
74
100
AcDbEntity
  8
DEFPOINTS
  6
ByBlock
 62
     0
100
AcDbPoint
 10
8.825000000000002
 20
2.185248058978043
 30
0.0
  0
POINT
  5
1A0
330
74
100
AcDbEntity
  8
DEFPOINTS
  6
ByBlock
 62
     0
100
AcDbPoint
 10
8.825000000000002
 20
1.0
 30
0.0
  0
TEXT
  5
1A1
330
74
100
AcDbEntity
  8
DIM
100
AcDbText
 10
8.315227345329541
 20
0.9155943491414848
 30
0.0
 40
0.18
  1
.55
  7
ROMANS
 72
     1
 11
8.533798773900969
 21
1.005594349141484
 31
0.0
100
AcDbText
 73
     2
  0
DIMENSION
  5
1A2
330
74
100
AcDbEntity
  8
DIM
100
AcDbDimension
  2
*D16
 10
5.936494354433925
 20
6.45
 30
0.0
 11
6.227235078489522
 21
5.695849642615955
 31
0.0
 70
    36
  1
R .95"
 71
     5
 42
0.9500000000000001
  3
Standard
100
AcDbRadialDimension
 15
5.182881780261226
 25
7.028418609701312
 35
0.0
 40
-2.18862342514326
1001
ACAD
1000
DSTYLE
1002
{
1070
   271
1070
     2
1070
   272
1070
     2
1070
   279
1070
     2
1002
}
  0
DIMENSION
  5
1A3
330
74
100
AcDbEntity
  8
DIM
100
AcDbDimension
  2
*D17
 10
4.508344255566493
 20
2.137119548171114
 30
0.0
 11
6.615961506156869
 21
4.651269559276919
 31
0.0
 70
    35
 71
     5
 42
1.9
  3
Standard
100
AcDbDiametricDimension
 15
5.491655744433511
 25
3.762880451828886
 35
0.0
 40
1.038245722574334
1001
ACAD
1000
DSTYLE
1002
{
1070
   271
1070
     2
1070
   272
1070
     2
1070
   279
1070
     2
1002
}
  0
LINE
  5
1A4
330
74
100
AcDbEntity
  8
0
  6
ByBlock
 62
     0
100
AcDbLine
 10
4.091510911219794
 20
3.356267344807754
 30
0.0
 11
3.363060084323893
 21
3.356267344807754
 31
0.0
  0
LINE
  5
1A5
330
74
100
AcDbEntity
  8
0
  6
ByBlock
 62
     0
100
AcDbLine
 10
3.987499999999999
 20
2.95
 30
0.0
 11
3.363060084323893
 21
2.95
 31
0.0
  0
LINE
  5
1A6
330
74
100
AcDbEntity
  8
0
  6
ByBlock
 62
     0
100
AcDbLine
 10
3.543060084323891
 20
3.356267344807754
 30
0.0
 11
3.543060084323891
 21
2.719917632981804
 31
0.0
  0
LINE
  5
1A7
330
74
100
AcDbEntity
  8
0
  6
ByBlock
 62
     0
100
AcDbLine
 10
3.543060084323891
 20
2.719917632981804
 30
0.0
 11
3.363060084323891
 21
2.719917632981804
 31
0.0
  0
SOLID
  5
1A8
330
74
100
AcDbEntity
  8
0
  6
ByBlock
 62
     0
100
AcDbTrace
 10
3.573060084323892
 20
3.176267344807754
 30
0.0
 11
3.513060084323893
 21
3.176267344807754
 31
0.0
 12
3.543060084323891
 22
3.356267344807754
 32
0.0
 13
3.543060084323891
 23
3.356267344807754
 33
0.0
  0
SOLID
  5
1A9
330
74
100
AcDbEntity
  8
0
  6
ByBlock
 62
     0
100
AcDbTrace
 10
3.573060084323892
 20
3.129999999999999
 30
0.0
 11
3.513060084323893
 21
3.129999999999999
 31
0.0
 12
3.543060084323891
 22
2.95
 32
0.0
 13
3.543060084323891
 23
2.95
 33
0.0
  0
TEXT
  5
1AA
330
74
100
AcDbEntity
  8
0
  6
ByBlock
 62
     0
100
AcDbText
 10
2.750202941466749
 20
2.629917632981804
 30
0.0
 40
0.18
  1
0.41
  7
ROMANS
 72
     1
 11
3.024488655752463
 21
2.719917632981804
 31
0.0
100
AcDbText
 73
     2
  0
POINT
  5
1AB
330
74
100
AcDbEntity
  8
DEFPOINTS
  6
ByBlock
 62
     0
100
AcDbPoint
 10
4.154010911219794
 20
3.356267344807754
 30
0.0
  0
POINT
  5
1AC
330
74
100
AcDbEntity
  8
DEFPOINTS
  6
ByBlock
 62
     0
100
AcDbPoint
 10
4.049999999999999
 20
2.95
 30
0.0
  0
POINT
  5
1AD
330
74
100
AcDbEntity
  8
DEFPOINTS
  6
ByBlock
 62
     0
100
AcDbPoint
 10
3.543060084323891
 20
2.95
 30
0.0
  0
LINE
  5
1AE
330
74
100
AcDbEntity
  8
0
  6
ByBlock
 62
     0
100
AcDbLine
 10
4.091510911219794
 20
3.356267344807754
 30
0.0
 11
3.363060084323893
 21
3.356267344807754
 31
0.0
  0
LINE
  5
1AF
330
74
100
AcDbEntity
  8
0
  6
ByBlock
 62
     0
100
AcDbLine
 10
4.465391377747941
 20
3.731256327288921
 30
0.0
 11
3.363060084323893
 21
3.731256327288921
 31
0.0
  0
LINE
  5
1B0
330
74
100
AcDbEntity
  8
0
  6
ByBlock
 62
     0
100
AcDbLine
 10
3.543060084323891
 20
3.176267344807754
 30
0.0
 11
3.543060084323891
 21
2.996267344807754
 31
0.0
  0
LINE
  5
1B1
330
74
100
AcDbEntity
  8
0
  6
ByBlock
 62
     0
100
AcDbLine
 10
3.543060084323893
 20
3.356267344807754
 30
0.0
 11
3.543060084323891
 21
4.004528632563673
 31
0.0
  0
LINE
  5
1B2
330
74
100
AcDbEntity
  8
0
  6
ByBlock
 62
     0
100
AcDbLine
 10
3.543060084323891
 20
4.004528632563673
 30
0.0
 11
3.363060084323891
 21
4.004528632563673
 31
0.0
  0
SOLID
  5
1B3
330
74
100
AcDbEntity
  8
0
  6
ByBlock
 62
     0
100
AcDbTrace
 10
3.573060084323892
 20
3.536267344807753
 30
0.0
 11
3.513060084323893
 21
3.536267344807753
 31
0.0
 12
3.543060084323891
 22
3.356267344807752
 32
0.0
 13
3.543060084323891
 23
3.356267344807752
 33
0.0
  0
SOLID
  5
1B4
330
74
100
AcDbEntity
  8
0
  6
ByBlock
 62
     0
100
AcDbTrace
 10
3.573060084323892
 20
3.551256327288921
 30
0.0
 11
3.513060084323893
 21
3.551256327288921
 31
0.0
 12
3.543060084323891
 22
3.731256327288921
 32
0.0
 13
3.543060084323891
 23
3.731256327288921
 33
0.0
  0
TEXT
  5
1B5
330
74
100
AcDbEntity
  8
0
  6
ByBlock
 62
     0
100
AcDbText
 10
2.739332151643107
 20
3.914528632563674
 30
0.0
 40
0.18
  1
0.37
  7
ROMANS
 72
     1
 11
3.039332151643106
 21
4.004528632563673
 31
0.0
100
AcDbText
 73
     2
  0
POINT
  5
1B6
330
74
100
AcDbEntity
  8
DEFPOINTS
  6
ByBlock
 62
     0
100
AcDbPoint
 10
4.154010911219794
 20
3.356267344807754
 30
0.0
  0
POINT
  5
1B7
330
74
100
AcDbEntity
  8
DEFPOINTS
  6
ByBlock
 62
     0
100
AcDbPoint
 10
4.527891377747941
 20
3.731256327288921
 30
0.0
  0
POINT
  5
1B8
330
74
100
AcDbEntity
  8
DEFPOINTS
  6
ByBlock
 62
     0
100
AcDbPoint
 10
3.543060084323891
 20
3.731256327288921
 30
0.0
  0
DIMENSION
  5
1B9
330
74
100
AcDbEntity
  8
DIM
100
AcDbDimension
  2
*D18
 10
4.646992425245268
 20
4.555797294379047
 30
0.0
 11
4.400501668232531
 21
4.964667294379046
 31
0.0
 70
    32
 71
     5
 42
0.4929815140254751
  3
Standard
100
AcDbAlignedDimension
 13
4.154010911219794
 23
3.356267344807754
 33
0.0
 14
4.646992425245268
 24
3.731267344807754
 34
0.0
100
AcDbRotatedDimension
1001
ACAD
1000
DSTYLE
1002
{
1070
   271
1070
     2
1070
   272
1070
     2
1070
   279
1070
     2
1002
}
  0
LINE
  5
1BA
330
74
100
AcDbEntity
  8
DIM
100
AcDbLine
 10
5.0
 20
1.9
 30
0.0
 11
5.0
 21
0.9
 31
0.0
  0
LINE
  5
1BB
330
74
100
AcDbEntity
  8
DIM
100
AcDbLine
 10
4.685027269185871
 20
1.948355263157894
 30
0.0
 11
4.385053239839082
 21
0.9944078947368421
 31
0.0
  0
ARC
  5
1BC
330
74
100
AcDbEntity
  8
0
  6
ByBlock
 62
     0
100
AcDbCircle
 10
5.0
 20
2.949999999999998
 30
0.0
 40
1.944861362648435
100
AcDbArc
 50
257.8486663279345
 51
264.6952903987492
  0
SOLID
  5
1BD
330
74
100
AcDbEntity
  8
0
  6
ByBlock
 62
     0
100
AcDbTrace
 10
4.582952110161627
 20
1.019708973324984
 30
0.0
 11
4.598282590018946
 21
1.077717389846592
 31
0.0
 12
4.416592100525462
 22
1.09470462115774
 32
0.0
 13
4.416592100525462
 23
1.09470462115774
 33
0.0
  0
SOLID
  5
1BE
330
74
100
AcDbEntity
  8
0
  6
ByBlock
 62
     0
100
AcDbTrace
 10
4.821581107456707
 20
1.043436140972884
 30
0.0
 11
4.818804559933213
 21
0.9835004188712037
 31
0.0
 12
5.0
 22
1.005138637351562
 32
0.0
 13
5.0
 23
1.005138637351562
 33
0.0
  0
TEXT
  5
1BF
330
74
100
AcDbEntity
  8
0
  6
ByBlock
 62
     0
100
AcDbText
 10
4.42443831258125
 20
0.6535762381986886
 30
0.0
 40
0.18
  1
17%%d
  7
ROMANS
 72
     1
 11
4.643009741152679
 21
0.7435762381986886
 31
0.0
100
AcDbText
 73
     2
  0
POINT
  5
1C0
330
74
100
AcDbEntity
  8
DEFPOINTS
  6
ByBlock
 62
     0
100
AcDbPoint
 10
4.685027269185871
 20
1.948355263157894
 30
0.0
  0
POINT
  5
1C1
330
74
100
AcDbEntity
  8
DEFPOINTS
  6
ByBlock
 62
     0
100
AcDbPoint
 10
4.385053239839082
 20
0.9944078947368421
 30
0.0
  0
POINT
  5
1C2
330
74
100
AcDbEntity
  8
DEFPOINTS
  6
ByBlock
 62
     0
100
AcDbPoint
 10
5.0
 20
1.9
 30
0.0
  0
POINT
  5
1C3
330
74
100
AcDbEntity
  8
DEFPOINTS
  6
ByBlock
 62
     0
100
AcDbPoint
 10
5.0
 20
0.9
 30
0.0
  0
DIMENSION
  5
1C4
330
74
100
AcDbEntity
  8
DIM
100
AcDbDimension
  2
*D19
 10
5.550000000000001
 20
0.2590939440389675
 30
0.0
 11
4.800000000000001
 21
0.2590939440389675
 31
0.0
 70
    32
 71
     5
 42
1.5
  3
Standard
100
AcDbAlignedDimension
 13
4.049999999999999
 23
2.95
 33
0.0
 14
5.550000000000001
 24
2.185801073018291
 34
0.0
100
AcDbRotatedDimension
1001
ACAD
1000
DSTYLE
1002
{
1070
   271
1070
     2
1070
   272
1070
     2
1070
   279
1070
     2
1002
}
  0
DIMENSION
  5
1C5
330
74
100
AcDbEntity
  8
DIM
100
AcDbDimension
  2
*D20
 10
9.5
 20
4.9
 30
0.0
 11
8.55
 21
4.9
 31
0.0
 70
    32
 71
     5
 42
1.9
  3
Standard
100
AcDbAlignedDimension
 13
7.599999999999999
 23
3.9
 33
0.0
 14
9.5
 24
3.9
 34
0.0
100
AcDbRotatedDimension
1001
ACAD
1000
DSTYLE
1002
{
1070
   271
1070
     2
1070
   272
1070
     2
1070
   279
1070
     2
1002
}
  0
LINE
  5
1C6
330
74
100
AcDbEntity
  8
DIM
100
AcDbLine
 10
1.449999999999999
 20
4.9
 30
0.0
 11
1.449999999999999
 21
4.100000000000001
 31
0.0
  0
LINE
  5
1C7
330
74
100
AcDbEntity
  8
DIM
100
AcDbLine
 10
1.449999999999999
 20
4.9
 30
0.0
 11
0.9500000000000001
 21
4.9
 31
0.0
  0
LINE
  5
1C8
330
74
100
AcDbEntity
  8
DIM
100
AcDbLine
 10
0.9500000000000001
 20
4.9
 30
0.0
 11
1.324999999999999
 21
5.025
 31
0.0
  0
LINE
  5
1C9
330
74
100
AcDbEntity
  8
DIM
100
AcDbLine
 10
1.324999999999999
 20
5.025
 30
0.0
 11
1.324999999999999
 21
4.9
 31
0.0
  0
LINE
  5
1CA
330
74
100
AcDbEntity
  8
DIM
100
AcDbLine
 10
1.324999999999999
 20
0.875
 30
0.0
 11
1.324999999999999
 21
1.0
 31
0.0
  0
LINE
  5
1CB
330
74
100
AcDbEntity
  8
DIM
100
AcDbLine
 10
0.9500000000000001
 20
1.0
 30
0.0
 11
1.324999999999999
 21
0.875
 31
0.0
  0
LINE
  5
1CC
330
74
100
AcDbEntity
  8
DIM
100
AcDbLine
 10
1.449999999999999
 20
1.0
 30
0.0
 11
0.9500000000000001
 21
1.0
 31
0.0
  0
TEXT
  5
1CD
330
74
100
AcDbEntity
  8
DIM
100
AcDbText
 10
1.032115762984622
 20
5.115481596058809
 30
0.0
 40
0.25
  1
A
  7
ROMANC
100
AcDbText
  0
TEXT
  5
1CF
330
74
100
AcDbEntity
  8
DIM
100
AcDbText
 10
1.032115762984622
 20
0.6072801587109398
 30
0.0
 40
0.25
  1
A
  7
ROMANC
100
AcDbText
  0
LINE
  5
1D0
330
74
100
AcDbEntity
  8
DIM
100
AcDbLine
 10
1.449999999999999
 20
1.8
 30
0.0
 11
1.449999999999999
 21
1.0
 31
0.0
  0
ENDSEC
  0
SECTION
  2
OBJECTS
  0
DICTIONARY
  5
C
330
0
100
AcDbDictionary
281
     1
  3
ACAD_2007HEADERVARS_RT
350
3A0
  3
ACAD_COLOR
350
6A
  3
ACAD_GROUP
350
D
  3
ACAD_LAYOUT
350
69
  3
ACAD_MATERIAL
350
10
  3
ACAD_MLEADERSTYLE
350
6D
  3
ACAD_MLINESTYLE
350
66
  3
ACAD_PLOTSETTINGS
350
68
  3
ACAD_PLOTSTYLENAME
350
E
  3
ACAD_SCALELIST
350
3A
  3
ACAD_TABLESTYLE
350
6B
  3
ACAD_VISUALSTYLE
350
29
  3
ACDB_RECOMPOSE_DATA
350
272
  3
AcDbVariableDictionary
350
284
  3
AcmDictionary
350
22E
  3
AMG
350
20D
  3
AMGSNAPSETTINGS
350
269
  3
DWGPROPS
350
39F
  0
DICTIONARY
  5
263
330
5C
100
AcDbDictionary
280
     1
281
     1
  3
ADSK_XREC_LAYER_RECONCILED
360
264
  0
DICTIONARY
  5
265
330
86
100
AcDbDictionary
280
     1
281
     1
  3
ADSK_XREC_LAYER_RECONCILED
360
266
  0
DICTIONARY
  5
267
330
87
100
AcDbDictionary
280
     1
281
     1
  3
ADSK_XREC_LAYER_RECONCILED
360
268
  0
DICTIONARY
  5
3A0
102
{ACAD_REACTORS
330
C
102
}
330
C
100
AcDbDictionary
281
     1
  3
DIMARCSYM
350
3A1
  0
DICTIONARY
  5
6A
102
{ACAD_REACTORS
330
C
102
}
330
C
100
AcDbDictionary
281
     1
  0
DICTIONARY
  5
D
102
{ACAD_REACTORS
330
C
102
}
330
C
100
AcDbDictionary
281
     1
  0
DICTIONARY
  5
69
102
{ACAD_REACTORS
330
C
102
}
330
C
100
AcDbDictionary
281
     1
  3
Layout1
350
73
  3
Model
350
77
  0
DICTIONARY
  5
10
102
{ACAD_REACTORS
330
C
102
}
330
C
100
AcDbDictionary
281
     1
  3
ByBlock
350
19
  3
ByLayer
350
11
  3
Global
350
21
  0
DICTIONARY
  5
6D
102
{ACAD_REACTORS
330
C
102
}
330
C
100
AcDbDictionary
281
     1
  3
Standard
350
6E
  0
DICTIONARY
  5
66
102
{ACAD_REACTORS
330
C
102
}
330
C
100
AcDbDictionary
281
     1
  3
Standard
350
67
  0
DICTIONARY
  5
68
102
{ACAD_REACTORS
330
C
102
}
330
C
100
AcDbDictionary
281
     1
  0
ACDBDICTIONARYWDFLT
  5
E
102
{ACAD_REACTORS
330
C
102
}
330
C
100
AcDbDictionary
281
     1
  3
Normal
350
F
100
AcDbDictionaryWithDefault
340
F
  0
DICTIONARY
  5
3A
102
{ACAD_REACTORS
330
C
102
}
330
C
100
AcDbDictionary
281
     1
  3
A0
350
3B
  3
A1
350
3C
  3
A2
350
3D
  3
A3
350
3E
  3
A4
350
3F
  3
A5
350
40
  3
A6
350
41
  3
A7
350
42
  3
A8
350
43
  3
A9
350
44
  3
B0
350
45
  3
B1
350
46
  3
B2
350
47
  3
B3
350
48
  3
B4
350
49
  3
B5
350
4A
  3
B6
350
4B
  3
B7
350
4C
  3
B8
350
4D
  3
B9
350
4E
  3
C0
350
4F
  3
C1
350
50
  3
C2
350
51
  3
C3
350
52
  3
C4
350
53
  3
C5
350
54
  3
C6
350
55
  3
C7
350
56
  3
C8
350
57
  3
C9
350
58
  3
D0
350
59
  3
D1
350
5A
  3
D2
350
5B
  0
DICTIONARY
  5
6B
102
{ACAD_REACTORS
330
C
102
}
330
C
100
AcDbDictionary
281
     1
  3
Standard
350
317
  0
DICTIONARY
  5
29
102
{ACAD_REACTORS
330
C
102
}
330
C
100
AcDbDictionary
281
     1
  3
2dWireframe
350
2F
  3
3D Hidden
350
31
  3
3dWireframe
350
30
  3
Basic
350
2E
  3
Brighten
350
35
  3
ColorChange
350
39
  3
Conceptual
350
32
  3
Dim
350
34
  3
Facepattern
350
38
  3
Flat
350
2A
  3
FlatWithEdges
350
2B
  3
Gouraud
350
2C
  3
GouraudWithEdges
350
2D
  3
Linepattern
350
37
  3
Realistic
350
33
  3
Thicken
350
36
  0
XRECORD
  5
272
102
{ACAD_REACTORS
330
C
102
}
330
C
100
AcDbXrecord
280
     1
 90
        1
330
6C
  0
DICTIONARY
  5
284
102
{ACAD_REACTORS
330
C
102
}
330
C
100
AcDbDictionary
281
     1
  3
CANNOSCALE
350
288
  3
CMLEADERSTYLE
350
286
  3
CTABLESTYLE
350
285
  3
DIMASSOC
350
28D
  3
HIDETEXT
350
28C
  3
INDEXCTL
350
28B
  3
LIGHTINGUNITS
350
289
  3
MSLTSCALE
350
287
  3
SORTENTS
350
28A
  0
DICTIONARY
  5
22E
102
{ACAD_REACTORS
330
C
102
}
330
C
100
AcDbDictionary
281
     1
  3
AcmStdDictionary
350
239
  3
AMDTSECTSYM_ARROWCOLOR
350
24E
  0
DICTIONARY
  5
20D
102
{ACAD_REACTORS
330
C
102
}
330
C
100
AcDbDictionary
281
     1
  0
DICTIONARY
  5
269
102
{ACAD_REACTORS
330
C
102
}
330
C
100
AcDbDictionary
281
     1
  0
XRECORD
  5
39F
102
{ACAD_REACTORS
330
C
102
}
330
C
100
AcDbXrecord
280
     1
  1
DWGPROPS COOKIE
  2

  3

  4

  6

  7

  8
rflom
  9

300
=
301
=
302
=
303
=
304
=
305
=
306
=
307
=
308
=
309
=
 40
0.0573191435185185
 41
2448580.652096528
 42
2454475.475845463
  1

 90
        0
  0
XRECORD
  5
264
102
{ACAD_REACTORS
330
263
102
}
330
263
100
AcDbXrecord
280
     1
290
     1
  0
XRECORD
  5
266
102
{ACAD_REACTORS
330
265
102
}
330
265
100
AcDbXrecord
280
     1
290
     1
  0
XRECORD
  5
268
102
{ACAD_REACTORS
330
267
102
}
330
267
100
AcDbXrecord
280
     1
290
     1
  0
XRECORD
  5
3A1
102
{ACAD_REACTORS
330
3A0
102
}
330
3A0
100
AcDbXrecord
280
     1
 70
     1
  0
LAYOUT
  5
73
102
{ACAD_XDICTIONARY
360
3A2
102
}
102
{ACAD_REACTORS
330
69
102
}
330
69
100
AcDbPlotSettings
  1

  2
HP LaserJet 1022
  4

  6

 40
0.0
 41
0.0
 42
0.0
 43
0.0
 44
0.0
 45
0.0
 46
0.0
 47
0.0
 48
0.0
 49
0.0
140
0.0
141
0.0
142
1.0
143
1.0
 70
   688
 72
     0
 73
     0
 74
     5
  7

 75
    16
147
1.0
148
0.0
149
0.0
100
AcDbLayout
  1
Layout1
 70
     0
 71
     1
 10
0.0
 20
0.0
 11
12.0
 21
9.0
 12
0.0
 22
0.0
 32
0.0
 14
1.000000000000000E+20
 24
1.000000000000000E+20
 34
1.000000000000000E+20
 15
-1.000000000000000E+20
 25
-1.000000000000000E+20
 35
-1.000000000000000E+20
146
0.0
 13
0.0
 23
0.0
 33
0.0
 16
1.0
 26
0.0
 36
0.0
 17
0.0
 27
1.0
 37
0.0
 76
     0
330
70
  0
LAYOUT
  5
77
102
{ACAD_XDICTIONARY
360
3A4
102
}
102
{ACAD_REACTORS
330
69
102
}
330
69
100
AcDbPlotSettings
  1

  2
HP LaserJet 1022
  4

  6

 40
0.0
 41
0.0
 42
0.0
 43
0.0
 44
0.0
 45
0.0
 46
0.0
 47
0.0
 48
0.0
 49
0.0
140
0.0
141
0.0
142
1.0
143
1.0
 70
  1712
 72
     0
 73
     0
 74
     0
  7

 75
     0
147
1.0
148
0.0
149
0.0
100
AcDbLayout
  1
Model
 70
     1
 71
     0
 10
0.0
 20
0.0
 11
12.0
 21
9.0
 12
0.0
 22
0.0
 32
0.0
 14
0.0
 24
0.0
 34
0.0
 15
0.0
 25
0.0
 35
0.0
146
0.0
 13
0.0
 23
0.0
 33
0.0
 16
1.0
 26
0.0
 36
0.0
 17
0.0
 27
1.0
 37
0.0
 76
     0
330
74
331
85
  0
MATERIAL
  5
19
102
{ACAD_XDICTIONARY
360
1A
102
}
102
{ACAD_REACTORS
330
10
102
}
330
10
100
AcDbMaterial
  1
ByBlock
 72
     0
 73
     2
 43
0.0208333333333333
 43
0.0
 43
0.0
 43
0.0
 43
0.0
 43
0.0208333333333333
 43
0.0
 43
0.0
 43
0.0
 43
0.0
 43
1.0
 43
0.0
 43
0.0
 43
0.0
 43
0.0
 43
1.0
 77
     0
 78
     2
 47
0.0208333333333333
 47
0.0
 47
0.0
 47
0.0
 47
0.0
 47
0.0208333333333333
 47
0.0
 47
0.0
 47
0.0
 47
0.0
 47
1.0
 47
0.0
 47
0.0
 47
0.0
 47
0.0
 47
1.0
171
     0
172
     2
 49
0.0208333333333333
 49
0.0
 49
0.0
 49
0.0
 49
0.0
 49
0.0208333333333333
 49
0.0
 49
0.0
 49
0.0
 49
0.0
 49
1.0
 49
0.0
 49
0.0
 49
0.0
 49
0.0
 49
1.0
175
     0
176
     2
142
0.0208333333333333
142
0.0
142
0.0
142
0.0
142
0.0
142
0.0208333333333333
142
0.0
142
0.0
142
0.0
142
0.0
142
1.0
142
0.0
142
0.0
142
0.0
142
0.0
142
1.0
179
     0
270
     2
144
0.0208333333333333
144
0.0
144
0.0
144
0.0
144
0.0
144
0.0208333333333333
144
0.0
144
0.0
144
0.0
144
0.0
144
1.0
144
0.0
144
0.0
144
0.0
144
0.0
144
1.0
274
     2
147
0.0208333333333333
147
0.0
147
0.0
147
0.0
147
0.0
147
0.0208333333333333
147
0.0
147
0.0
147
0.0
147
0.0
147
1.0
147
0.0
147
0.0
147
0.0
147
0.0
147
1.0
  0
MATERIAL
  5
11
102
{ACAD_XDICTIONARY
360
12
102
}
102
{ACAD_REACTORS
330
10
102
}
330
10
100
AcDbMaterial
  1
ByLayer
 72
     0
 73
     2
 43
0.0208333333333333
 43
0.0
 43
0.0
 43
0.0
 43
0.0
 43
0.0208333333333333
 43
0.0
 43
0.0
 43
0.0
 43
0.0
 43
1.0
 43
0.0
 43
0.0
 43
0.0
 43
0.0
 43
1.0
 77
     0
 78
     2
 47
0.0208333333333333
 47
0.0
 47
0.0
 47
0.0
 47
0.0
 47
0.0208333333333333
 47
0.0
 47
0.0
 47
0.0
 47
0.0
 47
1.0
 47
0.0
 47
0.0
 47
0.0
 47
0.0
 47
1.0
171
     0
172
     2
 49
0.0208333333333333
 49
0.0
 49
0.0
 49
0.0
 49
0.0
 49
0.0208333333333333
 49
0.0
 49
0.0
 49
0.0
 49
0.0
 49
1.0
 49
0.0
 49
0.0
 49
0.0
 49
0.0
 49
1.0
175
     0
176
     2
142
0.0208333333333333
142
0.0
142
0.0
142
0.0
142
0.0
142
0.0208333333333333
142
0.0
142
0.0
142
0.0
142
0.0
142
1.0
142
0.0
142
0.0
142
0.0
142
0.0
142
1.0
179
     0
270
     2
144
0.0208333333333333
144
0.0
144
0.0
144
0.0
144
0.0
144
0.0208333333333333
144
0.0
144
0.0
144
0.0
144
0.0
144
1.0
144
0.0
144
0.0
144
0.0
144
0.0
144
1.0
274
     2
147
0.0208333333333333
147
0.0
147
0.0
147
0.0
147
0.0
147
0.0208333333333333
147
0.0
147
0.0
147
0.0
147
0.0
147
1.0
147
0.0
147
0.0
147
0.0
147
0.0
147
1.0
  0
MATERIAL
  5
21
102
{ACAD_XDICTIONARY
360
22
102
}
102
{ACAD_REACTORS
330
10
102
}
330
10
100
AcDbMaterial
  1
Global
 72
     0
 73
     2
 43
0.0208333333333333
 43
0.0
 43
0.0
 43
0.0
 43
0.0
 43
0.0208333333333333
 43
0.0
 43
0.0
 43
0.0
 43
0.0
 43
1.0
 43
0.0
 43
0.0
 43
0.0
 43
0.0
 43
1.0
 77
     0
 78
     2
 47
0.0208333333333333
 47
0.0
 47
0.0
 47
0.0
 47
0.0
 47
0.0208333333333333
 47
0.0
 47
0.0
 47
0.0
 47
0.0
 47
1.0
 47
0.0
 47
0.0
 47
0.0
 47
0.0
 47
1.0
171
     0
172
     2
 49
0.0208333333333333
 49
0.0
 49
0.0
 49
0.0
 49
0.0
 49
0.0208333333333333
 49
0.0
 49
0.0
 49
0.0
 49
0.0
 49
1.0
 49
0.0
 49
0.0
 49
0.0
 49
0.0
 49
1.0
175
     0
176
     2
142
0.0208333333333333
142
0.0
142
0.0
142
0.0
142
0.0
142
0.0208333333333333
142
0.0
142
0.0
142
0.0
142
0.0
142
1.0
142
0.0
142
0.0
142
0.0
142
0.0
142
1.0
179
     0
270
     2
144
0.0208333333333333
144
0.0
144
0.0
144
0.0
144
0.0
144
0.0208333333333333
144
0.0
144
0.0
144
0.0
144
0.0
144
1.0
144
0.0
144
0.0
144
0.0
144
0.0
144
1.0
274
     2
147
0.0208333333333333
147
0.0
147
0.0
147
0.0
147
0.0
147
0.0208333333333333
147
0.0
147
0.0
147
0.0
147
0.0
147
1.0
147
0.0
147
0.0
147
0.0
147
0.0
147
1.0
  0
ACAD_PROXY_OBJECT
  5
6E
102
{ACAD_REACTORS
330
6D
102
}
330
6D
100
AcDbProxyObject
 90
      499
 91
      505
 95
       23
 70
     0
 93
      618
310
40901902A4063FBFFFFFE056BD1B81E855B9FC0AD7A3703D0AD73F4254DD185B99185C990000AD7A3703D0AC73F90141901A02B5E8DC0F42B1CFC02B5E8DC0F42B1CFE5764000000000000300FFF
340
62
340
0
340
5D
340
0
 94
        0
1001
ACAD_MLEADERVER
1070
     2
1001
ACAD
1000
AcRTDxfName
1000
MLEADERSTYLE
  0
MLINESTYLE
  5
67
102
{ACAD_REACTORS
330
66
102
}
330
66
100
AcDbMlineStyle
  2
STANDARD
 70
     0
  3

 62
   256
 51
90.0
 52
90.0
 71
     2
 49
0.5
 62
   256
  6
BYLAYER
 49
-0.5
 62
   256
  6
BYLAYER
  0
ACDBPLACEHOLDER
  5
F
102
{ACAD_REACTORS
330
E
102
}
330
E
  0
ACAD_PROXY_OBJECT
  5
3B
102
{ACAD_REACTORS
330
3A
102
}
330
3A
100
AcDbProxyObject
 90
      499
 91
      503
 95
       23
 70
     0
 93
       49
310
904313A31005FF
 94
        0
1001
ACAD
1000
AcRTDxfName
1000
SCALE
  0
ACAD_PROXY_OBJECT
  5
3C
102
{ACAD_REACTORS
330
3A
102
}
330
3A
100
AcDbProxyObject
 90
      499
 91
      503
 95
       23
 70
     0
 93
      113
310
904313A3200400000000000000407F
 94
        0
1001
ACAD
1000
AcRTDxfName
1000
SCALE
  0
ACAD_PROXY_OBJECT
  5
3D
102
{ACAD_REACTORS
330
3A
102
}
330
3A
100
AcDbProxyObject
 90
      499
 91
      503
 95
       23
 70
     0
 93
      113
310
904313A3400400000000000010407F
 94
        0
1001
ACAD
1000
AcRTDxfName
1000
SCALE
  0
ACAD_PROXY_OBJECT
  5
3E
102
{ACAD_REACTORS
330
3A
102
}
330
3A
100
AcDbProxyObject
 90
      499
 91
      503
 95
       23
 70
     0
 93
      113
310
904313A3500400000000000014407F
 94
        0
1001
ACAD
1000
AcRTDxfName
1000
SCALE
  0
ACAD_PROXY_OBJECT
  5
3F
102
{ACAD_REACTORS
330
3A
102
}
330
3A
100
AcDbProxyObject
 90
      499
 91
      503
 95
       23
 70
     0
 93
      113
310
904313A3800400000000000020407F
 94
        0
1001
ACAD
1000
AcRTDxfName
1000
SCALE
  0
ACAD_PROXY_OBJECT
  5
40
102
{ACAD_REACTORS
330
3A
102
}
330
3A
100
AcDbProxyObject
 90
      499
 91
      503
 95
       23
 70
     0
 93
      121
310
905313A313000400000000000024407F
 94
        0
1001
ACAD
1000
AcRTDxfName
1000
SCALE
  0
ACAD_PROXY_OBJECT
  5
41
102
{ACAD_REACTORS
330
3A
102
}
330
3A
100
AcDbProxyObject
 90
      499
 91
      503
 95
       23
 70
     0
 93
      121
310
905313A313600400000000000030407F
 94
        0
1001
ACAD
1000
AcRTDxfName
1000
SCALE
  0
ACAD_PROXY_OBJECT
  5
42
102
{ACAD_REACTORS
330
3A
102
}
330
3A
100
AcDbProxyObject
 90
      499
 91
      503
 95
       23
 70
     0
 93
      121
310
905313A323000400000000000034407F
 94
        0
1001
ACAD
1000
AcRTDxfName
1000
SCALE
  0
ACAD_PROXY_OBJECT
  5
43
102
{ACAD_REACTORS
330
3A
102
}
330
3A
100
AcDbProxyObject
 90
      499
 91
      503
 95
       23
 70
     0
 93
      121
310
905313A33300040000000000003E407F
 94
        0
1001
ACAD
1000
AcRTDxfName
1000
SCALE
  0
ACAD_PROXY_OBJECT
  5
44
102
{ACAD_REACTORS
330
3A
102
}
330
3A
100
AcDbProxyObject
 90
      499
 91
      503
 95
       23
 70
     0
 93
      121
310
905313A343000400000000000044407F
 94
        0
1001
ACAD
1000
AcRTDxfName
1000
SCALE
  0
ACAD_PROXY_OBJECT
  5
45
102
{ACAD_REACTORS
330
3A
102
}
330
3A
100
AcDbProxyObject
 90
      499
 91
      503
 95
       23
 70
     0
 93
      121
310
905313A353000400000000000049407F
 94
        0
1001
ACAD
1000
AcRTDxfName
1000
SCALE
  0
ACAD_PROXY_OBJECT
  5
46
102
{ACAD_REACTORS
330
3A
102
}
330
3A
100
AcDbProxyObject
 90
      499
 91
      503
 95
       23
 70
     0
 93
      129
310
906313A31303000400000000000059407F
 94
        0
1001
ACAD
1000
AcRTDxfName
1000
SCALE
  0
ACAD_PROXY_OBJECT
  5
47
102
{ACAD_REACTORS
330
3A
102
}
330
3A
100
AcDbProxyObject
 90
      499
 91
      503
 95
       23
 70
     0
 93
      113
310
904323A3100000000000000001017F
 94
        0
1001
ACAD
1000
AcRTDxfName
1000
SCALE
  0
ACAD_PROXY_OBJECT
  5
48
102
{ACAD_REACTORS
330
3A
102
}
330
3A
100
AcDbProxyObject
 90
      499
 91
      503
 95
       23
 70
     0
 93
      113
310
904343A3100000000000000041017F
 94
        0
1001
ACAD
1000
AcRTDxfName
1000
SCALE
  0
ACAD_PROXY_OBJECT
  5
49
102
{ACAD_REACTORS
330
3A
102
}
330
3A
100
AcDbProxyObject
 90
      499
 91
      503
 95
       23
 70
     0
 93
      113
310
904383A3100000000000000081017F
 94
        0
1001
ACAD
1000
AcRTDxfName
1000
SCALE
  0
ACAD_PROXY_OBJECT
  5
4A
102
{ACAD_REACTORS
330
3A
102
}
330
3A
100
AcDbProxyObject
 90
      499
 91
      503
 95
       23
 70
     0
 93
      121
310
90531303A3100000000000000091017F
 94
        0
1001
ACAD
1000
AcRTDxfName
1000
SCALE
  0
ACAD_PROXY_OBJECT
  5
4B
102
{ACAD_REACTORS
330
3A
102
}
330
3A
100
AcDbProxyObject
 90
      499
 91
      503
 95
       23
 70
     0
 93
      129
310
9063130303A3100000000000000165017F
 94
        0
1001
ACAD
1000
AcRTDxfName
1000
SCALE
  0
ACAD_PROXY_OBJECT
  5
4C
102
{ACAD_REACTORS
330
3A
102
}
330
3A
100
AcDbProxyObject
 90
      499
 91
      503
 95
       23
 70
     0
 93
      265
310
90F312F31323822203D2031272D302200000000000000200FC00000000000028407F
 94
        0
1001
ACAD
1000
AcRTDxfName
1000
SCALE
  0
ACAD_PROXY_OBJECT
  5
4D
102
{ACAD_REACTORS
330
3A
102
}
330
3A
100
AcDbProxyObject
 90
      499
 91
      503
 95
       23
 70
     0
 93
      257
310
90E312F363422203D2031272D302200000000000000240FC00000000000028407F
 94
        0
1001
ACAD
1000
AcRTDxfName
1000
SCALE
  0
ACAD_PROXY_OBJECT
  5
4E
102
{ACAD_REACTORS
330
3A
102
}
330
3A
100
AcDbProxyObject
 90
      499
 91
      503
 95
       23
 70
     0
 93
      257
310
90E312F333222203D2031272D302200000000000000280FC00000000000028407F
 94
        0
1001
ACAD
1000
AcRTDxfName
1000
SCALE
  0
ACAD_PROXY_OBJECT
  5
4F
102
{ACAD_REACTORS
330
3A
102
}
330
3A
100
AcDbProxyObject
 90
      499
 91
      503
 95
       23
 70
     0
 93
      257
310
90E312F313622203D2031272D3022000000000000002C0FC00000000000028407F
 94
        0
1001
ACAD
1000
AcRTDxfName
1000
SCALE
  0
ACAD_PROXY_OBJECT
  5
50
102
{ACAD_REACTORS
330
3A
102
}
330
3A
100
AcDbProxyObject
 90
      499
 91
      503
 95
       23
 70
     0
 93
      257
310
90E332F333222203D2031272D3022000000000000002E0FC00000000000028407F
 94
        0
1001
ACAD
1000
AcRTDxfName
1000
SCALE
  0
ACAD_PROXY_OBJECT
  5
51
102
{ACAD_REACTORS
330
3A
102
}
330
3A
100
AcDbProxyObject
 90
      499
 91
      503
 95
       23
 70
     0
 93
      249
310
90D312F3822203D2031272D302200000000000000300FC00000000000028407F
 94
        0
1001
ACAD
1000
AcRTDxfName
1000
SCALE
  0
ACAD_PROXY_OBJECT
  5
52
102
{ACAD_REACTORS
330
3A
102
}
330
3A
100
AcDbProxyObject
 90
      499
 91
      503
 95
       23
 70
     0
 93
      257
310
90E332F313622203D2031272D302200000000000000320FC00000000000028407F
 94
        0
1001
ACAD
1000
AcRTDxfName
1000
SCALE
  0
ACAD_PROXY_OBJECT
  5
53
102
{ACAD_REACTORS
330
3A
102
}
330
3A
100
AcDbProxyObject
 90
      499
 91
      503
 95
       23
 70
     0
 93
      249
310
90D312F3422203D2031272D302200000000000000340FC00000000000028407F
 94
        0
1001
ACAD
1000
AcRTDxfName
1000
SCALE
  0
ACAD_PROXY_OBJECT
  5
54
102
{ACAD_REACTORS
330
3A
102
}
330
3A
100
AcDbProxyObject
 90
      499
 91
      503
 95
       23
 70
     0
 93
      249
310
90D332F3822203D2031272D302200000000000000360FC00000000000028407F
 94
        0
1001
ACAD
1000
AcRTDxfName
1000
SCALE
  0
ACAD_PROXY_OBJECT
  5
55
102
{ACAD_REACTORS
330
3A
102
}
330
3A
100
AcDbProxyObject
 90
      499
 91
      503
 95
       23
 70
     0
 93
      249
310
90D312F3222203D2031272D302200000000000000380FC00000000000028407F
 94
        0
1001
ACAD
1000
AcRTDxfName
1000
SCALE
  0
ACAD_PROXY_OBJECT
  5
56
102
{ACAD_REACTORS
330
3A
102
}
330
3A
100
AcDbProxyObject
 90
      499
 91
      503
 95
       23
 70
     0
 93
      249
310
90D332F3422203D2031272D3022000000000000003A0FC00000000000028407F
 94
        0
1001
ACAD
1000
AcRTDxfName
1000
SCALE
  0
ACAD_PROXY_OBJECT
  5
57
102
{ACAD_REACTORS
330
3A
102
}
330
3A
100
AcDbProxyObject
 90
      499
 91
      503
 95
       23
 70
     0
 93
      169
310
90B3122203D2031272D302200400000000000028407F
 94
        0
1001
ACAD
1000
AcRTDxfName
1000
SCALE
  0
ACAD_PROXY_OBJECT
  5
58
102
{ACAD_REACTORS
330
3A
102
}
330
3A
100
AcDbProxyObject
 90
      499
 91
      503
 95
       23
 70
     0
 93
      265
310
90F312D312F3222203D2031272D3022000000000000003E0FC00000000000028407F
 94
        0
1001
ACAD
1000
AcRTDxfName
1000
SCALE
  0
ACAD_PROXY_OBJECT
  5
59
102
{ACAD_REACTORS
330
3A
102
}
330
3A
100
AcDbProxyObject
 90
      499
 91
      503
 95
       23
 70
     0
 93
      233
310
90B3322203D2031272D3022000000000000000210000000000000028407F
 94
        0
1001
ACAD
1000
AcRTDxfName
1000
SCALE
  0
ACAD_PROXY_OBJECT
  5
5A
102
{ACAD_REACTORS
330
3A
102
}
330
3A
100
AcDbProxyObject
 90
      499
 91
      503
 95
       23
 70
     0
 93
      233
310
90B3622203D2031272D3022000000000000000610000000000000028407F
 94
        0
1001
ACAD
1000
AcRTDxfName
1000
SCALE
  0
ACAD_PROXY_OBJECT
  5
5B
102
{ACAD_REACTORS
330
3A
102
}
330
3A
100
AcDbProxyObject
 90
      499
 91
      503
 95
       23
 70
     0
 93
      257
310
90E31272D3022203D2031272D3022000000000000000A10000000000000028407F
 94
        0
1001
ACAD
1000
AcRTDxfName
1000
SCALE
  0
TABLESTYLE
  5
317
102
{ACAD_XDICTIONARY
360
3A6
102
}
102
{ACAD_REACTORS
330
6B
102
}
330
6B
100
AcDbTableStyle
  3
Standard
 70
     0
 71
     0
 40
0.06
 41
0.06
280
     0
281
     0
  7
STANDARD
140
0.18
170
     2
 62
     0
 63
     7
283
     0
274
    -2
284
     1
 64
     0
275
    -2
285
     1
 65
     0
276
    -2
286
     1
 66
     0
277
    -2
287
     1
 67
     0
278
    -2
288
     1
 68
     0
279
    -2
289
     1
 69
     0
  7
STANDARD
140
0.25
170
     5
 62
     0
 63
     7
283
     0
274
    -2
284
     1
 64
     0
275
    -2
285
     1
 65
     0
276
    -2
286
     1
 66
     0
277
    -2
287
     1
 67
     0
278
    -2
288
     1
 68
     0
279
    -2
289
     1
 69
     0
  7
STANDARD
140
0.18
170
     5
 62
     0
 63
     7
283
     0
274
    -2
284
     1
 64
     0
275
    -2
285
     1
 65
     0
276
    -2
286
     1
 66
     0
277
    -2
287
     1
 67
     0
278
    -2
288
     1
 68
     0
279
    -2
289
     1
 69
     0
  0
VISUALSTYLE
  5
2F
102
{ACAD_REACTORS
330
29
102
}
330
29
100
AcDbVisualStyle
  2
2dWireframe
 70
     4
 71
     0
 72
     2
 73
     0
 90
        0
 40
-0.6
 41
-30.0
 62
     5
 63
     7
 74
     1
 91
        4
 64
     7
 65
   257
 75
     1
175
     1
 42
1.0
 92
        0
 66
   257
 43
1.0
 76
     1
 77
     6
 78
     2
 67
     7
 79
     5
170
     0
171
     0
290
     0
174
     0
 93
        1
 44
0.0
173
     0
291
     0
 45
0.0
1001
ACAD
1000
AcDbSavedByObjectVersion
1070
     0
1000
AcDbSavedByObjectVersion
1070
     0
  0
VISUALSTYLE
  5
31
102
{ACAD_REACTORS
330
29
102
}
330
29
100
AcDbVisualStyle
  2
3D Hidden
 70
     6
 71
     1
 72
     2
 73
     2
 90
        0
 40
-0.6
 41
-30.0
 62
     5
 63
     7
 74
     2
 91
        2
 64
     7
 65
   257
 75
     2
175
     1
 42
40.0
 92
        0
 66
   257
 43
1.0
 76
     1
 77
     6
 78
     2
 67
     7
 79
     3
170
     0
171
     0
290
     0
174
     0
 93
        1
 44
0.0
173
     0
291
     0
 45
0.0
1001
ACAD
1000
AcDbSavedByObjectVersion
1070
     0
1000
AcDbSavedByObjectVersion
1070
     0
  0
VISUALSTYLE
  5
30
102
{ACAD_REACTORS
330
29
102
}
330
29
100
AcDbVisualStyle
  2
3dWireframe
 70
     5
 71
     0
 72
     2
 73
     0
 90
        0
 40
-0.6
 41
-30.0
 62
     5
 63
     7
 74
     1
 91
        4
 64
     7
 65
   257
 75
     1
175
     1
 42
1.0
 92
        0
 66
   257
 43
1.0
 76
     1
 77
     6
 78
     2
 67
     7
 79
     5
170
     0
171
     0
290
     0
174
     0
 93
        1
 44
0.0
173
     0
291
     0
 45
0.0
1001
ACAD
1000
AcDbSavedByObjectVersion
1070
     0
1000
AcDbSavedByObjectVersion
1070
     0
  0
VISUALSTYLE
  5
2E
102
{ACAD_REACTORS
330
29
102
}
330
29
100
AcDbVisualStyle
  2
Basic
 70
     7
 71
     1
 72
     0
 73
     1
 90
        0
 40
-0.6
 41
-30.0
 62
     5
 63
     7
 74
     0
 91
        4
 64
     7
 65
   257
 75
     1
175
     1
 42
1.0
 92
        8
 66
     7
 43
1.0
 76
     1
 77
     6
 78
     2
 67
     7
 79
     5
170
     0
171
     0
290
     0
174
     0
 93
        1
 44
0.0
173
     0
291
     1
 45
0.0
1001
ACAD
1000
AcDbSavedByObjectVersion
1070
     0
1000
AcDbSavedByObjectVersion
1070
     0
  0
VISUALSTYLE
  5
35
102
{ACAD_REACTORS
330
29
102
}
330
29
100
AcDbVisualStyle
  2
Brighten
 70
    12
 71
     2
 72
     2
 73
     0
 90
        0
 40
-0.6
 41
-30.0
 62
     5
 63
     7
 74
     1
 91
        4
 64
     7
 65
   257
 75
     1
175
     1
 42
1.0
 92
        8
 66
     7
 43
1.0
 76
     1
 77
     6
 78
     2
 67
     7
 79
     5
170
     0
171
     0
290
     0
174
     0
 93
        1
 44
50.0
173
     0
291
     1
 45
0.0
1001
ACAD
1000
AcDbSavedByObjectVersion
1070
     0
1000
AcDbSavedByObjectVersion
1070
     0
  0
VISUALSTYLE
  5
39
102
{ACAD_REACTORS
330
29
102
}
330
29
100
AcDbVisualStyle
  2
ColorChange
 70
    16
 71
     2
 72
     2
 73
     3
 90
        0
 40
-0.6
 41
-30.0
 62
     5
 63
     8
 74
     1
 91
        4
 64
     7
 65
   257
 75
     1
175
     1
 42
1.0
 92
        8
 66
     8
 43
1.0
 76
     1
 77
     6
 78
     2
 67
     7
 79
     5
170
     0
171
     0
290
     0
174
     0
 93
        1
 44
0.0
173
     0
291
     1
 45
0.0
1001
ACAD
1000
AcDbSavedByObjectVersion
1070
     0
1000
AcDbSavedByObjectVersion
1070
     0
  0
VISUALSTYLE
  5
32
102
{ACAD_REACTORS
330
29
102
}
330
29
100
AcDbVisualStyle
  2
Conceptual
 70
     9
 71
     3
 72
     2
 73
     0
 90
        0
 40
-0.6
 41
-30.0
 62
     5
 63
     7
 74
     2
 91
        2
 64
     7
 65
   257
 75
     1
175
     1
 42
40.0
 92
        8
 66
     7
 43
1.0
 76
     1
 77
     6
 78
     2
 67
     7
 79
     3
170
     0
171
     0
290
     0
174
     0
 93
        1
 44
0.0
173
     0
291
     0
 45
0.0
1001
ACAD
1000
AcDbSavedByObjectVersion
1070
     0
1000
AcDbSavedByObjectVersion
1070
     0
  0
VISUALSTYLE
  5
34
102
{ACAD_REACTORS
330
29
102
}
330
29
100
AcDbVisualStyle
  2
Dim
 70
    11
 71
     2
 72
     2
 73
     0
 90
        0
 40
-0.6
 41
-30.0
 62
     5
 63
     7
 74
     1
 91
        4
 64
     7
 65
   257
 75
     1
175
     1
 42
1.0
 92
        8
 66
     7
 43
1.0
 76
     1
 77
     6
 78
     2
 67
     7
 79
     5
170
     0
171
     0
290
     0
174
     0
 93
        1
 44
-50.0
173
     0
291
     1
 45
0.0
1001
ACAD
1000
AcDbSavedByObjectVersion
1070
     0
1000
AcDbSavedByObjectVersion
1070
     0
  0
VISUALSTYLE
  5
38
102
{ACAD_REACTORS
330
29
102
}
330
29
100
AcDbVisualStyle
  2
Facepattern
 70
    15
 71
     2
 72
     2
 73
     0
 90
        0
 40
-0.6
 41
-30.0
 62
     5
 63
     7
 74
     1
 91
        4
 64
     7
 65
   257
 75
     1
175
     1
 42
1.0
 92
        8
 66
     7
 43
1.0
 76
     1
 77
     6
 78
     2
 67
     7
 79
     5
170
     0
171
     0
290
     0
174
     0
 93
        1
 44
0.0
173
     0
291
     1
 45
0.0
1001
ACAD
1000
AcDbSavedByObjectVersion
1070
     0
1000
AcDbSavedByObjectVersion
1070
     0
  0
VISUALSTYLE
  5
2A
102
{ACAD_REACTORS
330
29
102
}
330
29
100
AcDbVisualStyle
  2
Flat
 70
     0
 71
     2
 72
     1
 73
     1
 90
        2
 40
-0.6
 41
30.0
 62
     5
 63
     7
 74
     0
 91
        4
 64
     7
 65
   257
 75
     1
175
     1
 42
1.0
 92
        8
 66
     7
 43
1.0
 76
     1
 77
     6
 78
     2
 67
     7
 79
     5
170
     0
171
     0
290
     0
174
     0
 93
       13
 44
0.0
173
     0
291
     1
 45
0.0
1001
ACAD
1000
AcDbSavedByObjectVersion
1070
     0
1000
AcDbSavedByObjectVersion
1070
     0
  0
VISUALSTYLE
  5
2B
102
{ACAD_REACTORS
330
29
102
}
330
29
100
AcDbVisualStyle
  2
FlatWithEdges
 70
     1
 71
     2
 72
     1
 73
     1
 90
        2
 40
-0.6
 41
30.0
 62
     5
 63
     7
 74
     1
 91
        4
 64
     7
 65
   257
 75
     1
175
     1
 42
1.0
 92
        0
 66
   257
 43
1.0
 76
     1
 77
     6
 78
     2
 67
     7
 79
     5
170
     0
171
     0
290
     0
174
     0
 93
       13
 44
0.0
173
     0
291
     1
 45
0.0
1001
ACAD
1000
AcDbSavedByObjectVersion
1070
     0
1000
AcDbSavedByObjectVersion
1070
     0
  0
VISUALSTYLE
  5
2C
102
{ACAD_REACTORS
330
29
102
}
330
29
100
AcDbVisualStyle
  2
Gouraud
 70
     2
 71
     2
 72
     2
 73
     1
 90
        2
 40
-0.6
 41
30.0
 62
     5
 63
     7
 74
     0
 91
        4
 64
     7
 65
   257
 75
     1
175
     1
 42
1.0
 92
        0
 66
     7
 43
1.0
 76
     1
 77
     6
 78
     2
 67
     7
 79
     5
170
     0
171
     0
290
     0
174
     0
 93
       13
 44
0.0
173
     0
291
     1
 45
0.0
1001
ACAD
1000
AcDbSavedByObjectVersion
1070
     0
1000
AcDbSavedByObjectVersion
1070
     0
  0
VISUALSTYLE
  5
2D
102
{ACAD_REACTORS
330
29
102
}
330
29
100
AcDbVisualStyle
  2
GouraudWithEdges
 70
     3
 71
     2
 72
     2
 73
     1
 90
        2
 40
-0.6
 41
30.0
 62
     5
 63
     7
 74
     1
 91
        4
 64
     7
 65
   257
 75
     1
175
     1
 42
1.0
 92
        0
 66
   257
 43
1.0
 76
     1
 77
     6
 78
     2
 67
     7
 79
     5
170
     0
171
     0
290
     0
174
     0
 93
       13
 44
0.0
173
     0
291
     1
 45
0.0
1001
ACAD
1000
AcDbSavedByObjectVersion
1070
     0
1000
AcDbSavedByObjectVersion
1070
     0
  0
VISUALSTYLE
  5
37
102
{ACAD_REACTORS
330
29
102
}
330
29
100
AcDbVisualStyle
  2
Linepattern
 70
    14
 71
     2
 72
     2
 73
     0
 90
        0
 40
-0.6
 41
-30.0
 62
     5
 63
     7
 74
     1
 91
        4
 64
     7
 65
   257
 75
     7
175
     7
 42
1.0
 92
        8
 66
     7
 43
1.0
 76
     1
 77
     6
 78
     2
 67
     7
 79
     5
170
     0
171
     0
290
     0
174
     0
 93
        1
 44
0.0
173
     0
291
     1
 45
0.0
1001
ACAD
1000
AcDbSavedByObjectVersion
1070
     0
1000
AcDbSavedByObjectVersion
1070
     0
  0
VISUALSTYLE
  5
33
102
{ACAD_REACTORS
330
29
102
}
330
29
100
AcDbVisualStyle
  2
Realistic
 70
     8
 71
     2
 72
     2
 73
     0
 90
        0
 40
-0.6
 41
-30.0
 62
     5
 63
     7
 74
     1
 91
        0
 64
     7
 65
   257
 75
     1
175
     1
 42
1.0
 92
        8
 66
     8
 43
1.0
 76
     1
 77
     6
 78
     2
 67
     7
 79
     5
170
     0
171
     0
290
     0
174
     0
 93
       13
 44
0.0
173
     0
291
     0
 45
0.0
1001
ACAD
1000
AcDbSavedByObjectVersion
1070
     0
1000
AcDbSavedByObjectVersion
1070
     0
  0
VISUALSTYLE
  5
36
102
{ACAD_REACTORS
330
29
102
}
330
29
100
AcDbVisualStyle
  2
Thicken
 70
    13
 71
     2
 72
     2
 73
     0
 90
        0
 40
-0.6
 41
-30.0
 62
     5
 63
     7
 74
     1
 91
        4
 64
     7
 65
   257
 75
     1
175
     1
 42
1.0
 92
       12
 66
     7
 43
1.0
 76
     1
 77
     6
 78
     2
 67
     7
 79
     5
170
     0
171
     0
290
     0
174
     0
 93
        1
 44
0.0
173
     0
291
     1
 45
0.0
1001
ACAD
1000
AcDbSavedByObjectVersion
1070
     0
1000
AcDbSavedByObjectVersion
1070
     0
  0
DICTIONARYVAR
  5
288
102
{ACAD_REACTORS
330
284
102
}
330
284
100
DictionaryVariables
280
     0
  1
1:1
  0
DICTIONARYVAR
  5
286
102
{ACAD_REACTORS
330
284
102
}
330
284
100
DictionaryVariables
280
     0
  1
STANDARD
  0
DICTIONARYVAR
  5
285
102
{ACAD_REACTORS
330
284
102
}
330
284
100
DictionaryVariables
280
     0
  1
STANDARD
  0
DICTIONARYVAR
  5
28D
102
{ACAD_REACTORS
330
284
102
}
330
284
100
DictionaryVariables
280
     0
  1
2
  0
DICTIONARYVAR
  5
28C
102
{ACAD_REACTORS
330
284
102
}
330
284
100
DictionaryVariables
280
     0
  1
1
  0
DICTIONARYVAR
  5
28B
102
{ACAD_REACTORS
330
284
102
}
330
284
100
DictionaryVariables
280
     0
  1
0
  0
DICTIONARYVAR
  5
289
102
{ACAD_REACTORS
330
284
102
}
330
284
100
DictionaryVariables
280
     0
  1
2
  0
DICTIONARYVAR
  5
287
102
{ACAD_REACTORS
330
284
102
}
330
284
100
DictionaryVariables
280
     0
  1
1
  0
DICTIONARYVAR
  5
28A
102
{ACAD_REACTORS
330
284
102
}
330
284
100
DictionaryVariables
280
     0
  1
127
  0
DICTIONARY
  5
239
102
{ACAD_REACTORS
330
22E
102
}
330
22E
100
AcDbDictionary
281
     1
  0
XRECORD
  5
24E
102
{ACAD_REACTORS
330
22E
102
}
330
22E
100
AcDbXrecord
280
     1
 90
-1023410169
  0
DICTIONARY
  5
3A2
330
73
100
AcDbDictionary
280
     1
281
     1
  3
ACAD_XREC_ROUNDTRIP
360
3A3
  0
DICTIONARY
  5
3A4
330
77
100
AcDbDictionary
280
     1
281
     1
  3
ACAD_XREC_ROUNDTRIP
360
3A5
  0
DICTIONARY
  5
1A
330
19
100
AcDbDictionary
280
     1
281
     1
  3
ACAD_XREC_ROUNDTRIP
360
30E
  3
BUMPTILE
360
1C
  3
DIFFUSETILE
360
1B
  3
OPACITYTILE
360
1F
  3
REFLECTIONTILE
360
1E
  3
REFRACTIONTILE
360
20
  3
SPECULARTILE
360
1D
  0
DICTIONARY
  5
12
330
11
100
AcDbDictionary
280
     1
281
     1
  3
ACAD_XREC_ROUNDTRIP
360
30F
  3
BUMPTILE
360
14
  3
DIFFUSETILE
360
13
  3
OPACITYTILE
360
17
  3
REFLECTIONTILE
360
16
  3
REFRACTIONTILE
360
18
  3
SPECULARTILE
360
15
  0
DICTIONARY
  5
22
330
21
100
AcDbDictionary
280
     1
281
     1
  3
ACAD_XREC_ROUNDTRIP
360
310
  3
BUMPTILE
360
24
  3
DIFFUSETILE
360
23
  3
OPACITYTILE
360
27
  3
REFLECTIONTILE
360
26
  3
REFRACTIONTILE
360
28
  3
SPECULARTILE
360
25
  0
DICTIONARY
  5
3A6
330
317
100
AcDbDictionary
280
     1
281
     1
  3
ACAD_XREC_ROUNDTRIP
360
3A7
  0
XRECORD
  5
3A3
102
{ACAD_REACTORS
330
3A2
102
}
330
3A2
100
AcDbXrecord
280
     1
102
SHADEPLOT
 70
     0
102
SHADEPLOTRESLEVEL
 70
     2
102
SHADEPLOTCUSTOMDPI
 70
   300
  0
XRECORD
  5
3A5
102
{ACAD_REACTORS
330
3A4
102
}
330
3A4
100
AcDbXrecord
280
     1
102
SHADEPLOT
 70
     0
102
SHADEPLOTRESLEVEL
 70
     2
102
SHADEPLOTCUSTOMDPI
 70
   300
  0
XRECORD
  5
30E
102
{ACAD_REACTORS
330
1A
102
}
330
1A
100
AcDbXrecord
280
     1
102
MATERIAL
148
0.0
149
0.0
149
0.0
 93
        0
 94
       63
282
     0
 72
     0
 77
     0
171
     0
175
     0
179
     0
273
     0
  0
XRECORD
  5
1C
102
{ACAD_REACTORS
330
1A
102
}
330
1A
100
AcDbXrecord
280
     1
270
     1
271
     1
  0
XRECORD
  5
1B
102
{ACAD_REACTORS
330
1A
102
}
330
1A
100
AcDbXrecord
280
     1
270
     1
271
     1
  0
XRECORD
  5
1F
102
{ACAD_REACTORS
330
1A
102
}
330
1A
100
AcDbXrecord
280
     1
270
     1
271
     1
  0
XRECORD
  5
1E
102
{ACAD_REACTORS
330
1A
102
}
330
1A
100
AcDbXrecord
280
     1
270
     1
271
     1
  0
XRECORD
  5
20
102
{ACAD_REACTORS
330
1A
102
}
330
1A
100
AcDbXrecord
280
     1
270
     1
271
     1
  0
XRECORD
  5
1D
102
{ACAD_REACTORS
330
1A
102
}
330
1A
100
AcDbXrecord
280
     1
270
     1
271
     1
  0
XRECORD
  5
30F
102
{ACAD_REACTORS
330
12
102
}
330
12
100
AcDbXrecord
280
     1
102
MATERIAL
148
0.0
149
0.0
149
0.0
 93
        0
 94
       63
282
     0
 72
     0
 77
     0
171
     0
175
     0
179
     0
273
     0
  0
XRECORD
  5
14
102
{ACAD_REACTORS
330
12
102
}
330
12
100
AcDbXrecord
280
     1
270
     1
271
     1
  0
XRECORD
  5
13
102
{ACAD_REACTORS
330
12
102
}
330
12
100
AcDbXrecord
280
     1
270
     1
271
     1
  0
XRECORD
  5
17
102
{ACAD_REACTORS
330
12
102
}
330
12
100
AcDbXrecord
280
     1
270
     1
271
     1
  0
XRECORD
  5
16
102
{ACAD_REACTORS
330
12
102
}
330
12
100
AcDbXrecord
280
     1
270
     1
271
     1
  0
XRECORD
  5
18
102
{ACAD_REACTORS
330
12
102
}
330
12
100
AcDbXrecord
280
     1
270
     1
271
     1
  0
XRECORD
  5
15
102
{ACAD_REACTORS
330
12
102
}
330
12
100
AcDbXrecord
280
     1
270
     1
271
     1
  0
XRECORD
  5
310
102
{ACAD_REACTORS
330
22
102
}
330
22
100
AcDbXrecord
280
     1
102
MATERIAL
148
0.0
149
0.0
149
0.0
 93
        0
 94
       63
282
     0
 72
     0
 77
     0
171
     0
175
     0
179
     0
273
     0
  0
XRECORD
  5
24
102
{ACAD_REACTORS
330
22
102
}
330
22
100
AcDbXrecord
280
     1
270
     1
271
     1
  0
XRECORD
  5
23
102
{ACAD_REACTORS
330
22
102
}
330
22
100
AcDbXrecord
280
     1
270
     1
271
     1
  0
XRECORD
  5
27
102
{ACAD_REACTORS
330
22
102
}
330
22
100
AcDbXrecord
280
     1
270
     1
271
     1
  0
XRECORD
  5
26
102
{ACAD_REACTORS
330
22
102
}
330
22
100
AcDbXrecord
280
     1
270
     1
271
     1
  0
XRECORD
  5
28
102
{ACAD_REACTORS
330
22
102
}
330
22
100
AcDbXrecord
280
     1
270
     1
271
     1
  0
XRECORD
  5
25
102
{ACAD_REACTORS
330
22
102
}
330
22
100
AcDbXrecord
280
     1
270
     1
271
     1
  0
XRECORD
  5
3A7
102
{ACAD_REACTORS
330
3A6
102
}
330
3A6
100
AcDbXrecord
280
     1
102
ACAD_ROUNDTRIP_PRE2007_TABLESTYLE
 90
      512
 91
        0
  1

 92
      512
 93
        0
  2

 94
      512
 95
        0
  3

  0
ENDSEC
  0
EOF
