  0
SECTION
  2
HEADER
  9
$ACADVER
  1
AC1015
  9
$ACADMAINTVER
 70
    18
  9
$DWGCODEPAGE
  3
ANSI_1252
  9
$INSBASE
 10
0.0
 20
0.0
 30
0.0
  9
$EXTMIN
 10
0.0
 20
0.0
 30
0.0
  9
$EXTMAX
 10
22.0
 20
17.0
 30
0.0
  9
$LIMMIN
 10
0.0
 20
0.0
  9
$LIMMAX
 10
22.0
 20
17.0
  9
$ORTHOMODE
 70
     0
  9
$REGENMODE
 70
     1
  9
$FILLMODE
 70
     1
  9
$QTEXTMODE
 70
     0
  9
$MIRRTEXT
 70
     0
  9
$LTSCALE
 40
2.0
  9
$ATTMODE
 70
     1
  9
$TEXTSIZE
 40
0.2
  9
$TRACEWID
 40
0.05
  9
$TEXTSTYLE
  7
Standard
  9
$CLAYER
  8
0
  9
$CELTYPE
  6
ByLayer
  9
$CECOLOR
 62
   256
  9
$CELTSCALE
 40
1.0
  9
$DISPSILH
 70
     0
  9
$DIMSCALE
 40
1.0
  9
$DIMASZ
 40
0.0708661417322835
  9
$DIMEXO
 40
0.0625
  9
$DIMDLI
 40
0.38
  9
$DIMRND
 40
0.0
  9
$DIMDLE
 40
0.0
  9
$DIMEXE
 40
0.18
  9
$DIMTP
 40
0.0
  9
$DIMTM
 40
0.0
  9
$DIMTXT
 40
0.2540000081062317
  9
$DIMCEN
 40
0.09
  9
$DIMTSZ
 40
0.0
  9
$DIMTOL
 70
     0
  9
$DIMLIM
 70
     0
  9
$DIMTIH
 70
     1
  9
$DIMTOH
 70
     1
  9
$DIMSE1
 70
     0
  9
$DIMSE2
 70
     0
  9
$DIMTAD
 70
     0
  9
$DIMZIN
 70
     0
  9
$DIMBLK
  1

  9
$DIMASO
 70
     1
  9
$DIMSHO
 70
     1
  9
$DIMPOST
  1

  9
$DIMAPOST
  1

  9
$DIMALT
 70
     0
  9
$DIMALTD
 70
     2
  9
$DIMALTF
 40
25.4
  9
$DIMLFAC
 40
1.0
  9
$DIMTOFL
 70
     0
  9
$DIMTVP
 40
0.0
  9
$DIMTIX
 70
     0
  9
$DIMSOXD
 70
     0
  9
$DIMSAH
 70
     0
  9
$DIMBLK1
  1

  9
$DIMBLK2
  1

  9
$DIMSTYLE
  2
Standard
  9
$DIMCLRD
 70
     0
  9
$DIMCLRE
 70
     0
  9
$DIMCLRT
 70
     0
  9
$DIMTFAC
 40
1.0
  9
$DIMGAP
 40
0.09
  9
$DIMJUST
 70
     0
  9
$DIMSD1
 70
     0
  9
$DIMSD2
 70
     0
  9
$DIMTOLJ
 70
     1
  9
$DIMTZIN
 70
     0
  9
$DIMALTZ
 70
     0
  9
$DIMALTTZ
 70
     0
  9
$DIMUPT
 70
     0
  9
$DIMDEC
 70
     4
  9
$DIMTDEC
 70
     4
  9
$DIMALTU
 70
     2
  9
$DIMALTTD
 70
     2
  9
$DIMTXSTY
  7
Standard
  9
$DIMAUNIT
 70
     0
  9
$DIMADEC
 70
     0
  9
$DIMALTRND
 40
0.0
  9
$DIMAZIN
 70
     0
  9
$DIMDSEP
 70
    46
  9
$DIMATFIT
 70
     3
  9
$DIMFRAC
 70
     0
  9
$DIMLDRBLK
  1

  9
$DIMLUNIT
 70
     2
  9
$DIMLWD
 70
    -2
  9
$DIMLWE
 70
    -2
  9
$DIMTMOVE
 70
     0
  9
$LUNITS
 70
     2
  9
$LUPREC
 70
     4
  9
$SKETCHINC
 40
0.1
  9
$FILLETRAD
 40
0.0
  9
$AUNITS
 70
     0
  9
$AUPREC
 70
     0
  9
$MENU
  1
.
  9
$ELEVATION
 40
0.0
  9
$PELEVATION
 40
0.0
  9
$THICKNESS
 40
0.0
  9
$LIMCHECK
 70
     0
  9
$CHAMFERA
 40
0.0
  9
$CHAMFERB
 40
0.0
  9
$CHAMFERC
 40
0.0
  9
$CHAMFERD
 40
0.0
  9
$SKPOLY
 70
     0
  9
$TDCREATE
 40
2456363.442460984
  9
$TDUCREATE
 40
2456363.650794317
  9
$TDUPDATE
 40
2456363.442460984
  9
$TDUUPDATE
 40
2456363.650794317
  9
$TDINDWG
 40
0.0000163079
  9
$TDUSRTIMER
 40
0.0000163079
  9
$USRTIMER
 70
     1
  9
$ANGBASE
 50
0.0
  9
$ANGDIR
 70
     0
  9
$PDMODE
 70
     0
  9
$PDSIZE
 40
0.0
  9
$PLINEWID
 40
0.0
  9
$SPLFRAME
 70
     0
  9
$SPLINETYPE
 70
     6
  9
$SPLINESEGS
 70
     8
  9
$HANDSEED
  5
98B
  9
$SURFTAB1
 70
     6
  9
$SURFTAB2
 70
     6
  9
$SURFTYPE
 70
     6
  9
$SURFU
 70
     6
  9
$SURFV
 70
     6
  9
$UCSBASE
  2

  9
$UCSNAME
  2

  9
$UCSORG
 10
0.0
 20
0.0
 30
0.0
  9
$UCSXDIR
 10
1.0
 20
0.0
 30
0.0
  9
$UCSYDIR
 10
0.0
 20
1.0
 30
0.0
  9
$UCSORTHOREF
  2

  9
$UCSORTHOVIEW
 70
     0
  9
$UCSORGTOP
 10
0.0
 20
0.0
 30
0.0
  9
$UCSORGBOTTOM
 10
0.0
 20
0.0
 30
0.0
  9
$UCSORGLEFT
 10
0.0
 20
0.0
 30
0.0
  9
$UCSORGRIGHT
 10
0.0
 20
0.0
 30
0.0
  9
$UCSORGFRONT
 10
0.0
 20
0.0
 30
0.0
  9
$UCSORGBACK
 10
0.0
 20
0.0
 30
0.0
  9
$PUCSBASE
  2

  9
$PUCSNAME
  2

  9
$PUCSORG
 10
0.0
 20
0.0
 30
0.0
  9
$PUCSXDIR
 10
1.0
 20
0.0
 30
0.0
  9
$PUCSYDIR
 10
0.0
 20
1.0
 30
0.0
  9
$PUCSORTHOREF
  2

  9
$PUCSORTHOVIEW
 70
     0
  9
$PUCSORGTOP
 10
0.0
 20
0.0
 30
0.0
  9
$PUCSORGBOTTOM
 10
0.0
 20
0.0
 30
0.0
  9
$PUCSORGLEFT
 10
0.0
 20
0.0
 30
0.0
  9
$PUCSORGRIGHT
 10
0.0
 20
0.0
 30
0.0
  9
$PUCSORGFRONT
 10
0.0
 20
0.0
 30
0.0
  9
$PUCSORGBACK
 10
0.0
 20
0.0
 30
0.0
  9
$USERI1
 70
     0
  9
$USERI2
 70
     0
  9
$USERI3
 70
     0
  9
$USERI4
 70
     0
  9
$USERI5
 70
     0
  9
$USERR1
 40
0.0
  9
$USERR2
 40
0.0
  9
$USERR3
 40
0.0
  9
$USERR4
 40
0.0
  9
$USERR5
 40
0.0
  9
$WORLDVIEW
 70
     1
  9
$SHADEDGE
 70
     3
  9
$SHADEDIF
 70
    70
  9
$TILEMODE
 70
     1
  9
$MAXACTVP
 70
    64
  9
$PINSBASE
 10
0.0
 20
0.0
 30
0.0
  9
$PLIMCHECK
 70
     0
  9
$PEXTMIN
 10
0.0
 20
0.0
 30
0.0
  9
$PEXTMAX
 10
22.0
 20
17.0
 30
0.0
  9
$PLIMMIN
 10
0.0
 20
0.0
  9
$PLIMMAX
 10
22.0
 20
17.0
  9
$UNITMODE
 70
     0
  9
$VISRETAIN
 70
     1
  9
$PLINEGEN
 70
     0
  9
$PSLTSCALE
 70
     1
  9
$TREEDEPTH
 70
  3020
  9
$CMLSTYLE
  2
Standard
  9
$CMLJUST
 70
     0
  9
$CMLSCALE
 40
1.0
  9
$PROXYGRAPHICS
 70
     1
  9
$MEASUREMENT
 70
     0
  9
$CELWEIGHT
370
    -1
  9
$ENDCAPS
280
     0
  9
$JOINSTYLE
280
     0
  9
$LWDISPLAY
290
     0
  9
$INSUNITS
 70
     1
  9
$HYPERLINKBASE
  1

  9
$STYLESHEET
  1

  9
$XEDIT
290
     1
  9
$CEPSNTYPE
380
     0
  9
$PSTYLEMODE
290
     1
  9
$FINGERPRINTGUID
  2
{CD791548-8ADB-44D0-A6F9-EB45C7528C80}
  9
$VERSIONGUID
  2
{BEFE23CF-A762-494A-AB2E-4710A4596B34}
  9
$EXTNAMES
290
     1
  9
$PSVPSCALE
 40
0.0
  9
$OLESTARTUP
290
     0
  0
ENDSEC
  0
SECTION
  2
CLASSES
  0
CLASS
  1
ACDBDICTIONARYWDFLT
  2
AcDbDictionaryWithDefault
  3
ObjectDBX Classes
 90
        0
280
     0
281
     0
  0
CLASS
  1
MATERIAL
  2
AcDbMaterial
  3
ObjectDBX Classes
 90
     1153
280
     0
281
     0
  0
CLASS
  1
VISUALSTYLE
  2
AcDbVisualStyle
  3
ObjectDBX Classes
 90
     4095
280
     0
281
     0
  0
CLASS
  1
SCALE
  2
AcDbScale
  3
ObjectDBX Classes
 90
     1153
280
     0
281
     0
  0
CLASS
  1
TABLESTYLE
  2
AcDbTableStyle
  3
ObjectDBX Classes
 90
     4095
280
     0
281
     0
  0
CLASS
  1
MLEADERSTYLE
  2
AcDbMLeaderStyle
  3
ACDB_MLEADERSTYLE_CLASS
 90
     4095
280
     0
281
     0
  0
CLASS
  1
ACDBSECTIONVIEWSTYLE
  2
AcDbSectionViewStyle
  3
ObjectDBX Classes
 90
     1025
280
     0
281
     0
  0
CLASS
  1
ACDBDETAILVIEWSTYLE
  2
AcDbDetailViewStyle
  3
ObjectDBX Classes
 90
     1025
280
     0
281
     0
  0
CLASS
  1
IMAGE
  2
AcDbRasterImage
  3
ISM
 90
     2175
280
     0
281
     1
  0
CLASS
  1
IMAGEDEF
  2
AcDbRasterImageDef
  3
ISM
 90
        0
280
     0
281
     0
  0
CLASS
  1
IMAGEDEF_REACTOR
  2
AcDbRasterImageDefReactor
  3
ISM
 90
        1
280
     0
281
     0
  0
CLASS
  1
RASTERVARIABLES
  2
AcDbRasterVariables
  3
ISM
 90
        0
280
     0
281
     0
  0
CLASS
  1
SORTENTSTABLE
  2
AcDbSortentsTable
  3
ObjectDBX Classes
 90
        0
280
     0
281
     0
  0
CLASS
  1
DICTIONARYVAR
  2
AcDbDictionaryVar
  3
ObjectDBX Classes
 90
        0
280
     0
281
     0
  0
CLASS
  1
CELLSTYLEMAP
  2
AcDbCellStyleMap
  3
ObjectDBX Classes
 90
     1152
280
     0
281
     0
  0
CLASS
  1
ACDBPLACEHOLDER
  2
AcDbPlaceHolder
  3
ObjectDBX Classes
 90
        0
280
     0
281
     0
  0
CLASS
  1
LAYOUT
  2
AcDbLayout
  3
ObjectDBX Classes
 90
        0
280
     0
281
     0
  0
ENDSEC
  0
SECTION
  2
TABLES
  0
TABLE
  2
VPORT
  5
8
330
0
100
AcDbSymbolTable
 70
     1
  0
VPORT
  5
57
330
8
100
AcDbSymbolTableRecord
100
AcDbViewportTableRecord
  2
*Active
 70
     0
 10
0.0
 20
0.0
 11
1.0
 21
1.0
 12
11.0
 22
8.5
 13
0.0
 23
0.0
 14
1.0
 24
1.0
 15
0.0
 25
0.0
 16
0.0
 26
0.0
 36
1.0
 17
0.0
 27
0.0
 37
0.0
 40
17.0
 41
1.294117647058823
 42
50.0
 43
0.0
 44
0.0
 50
0.0
 51
0.0
 71
     0
 72
   100
 73
     1
 74
     1
 75
     0
 76
     0
 77
     0
 78
     0
281
     0
 65
     1
110
0.0
120
0.0
130
0.0
111
1.0
121
0.0
131
0.0
112
0.0
122
1.0
132
0.0
 79
     0
146
0.0
  0
ENDTAB
  0
TABLE
  2
LTYPE
  5
5
330
0
100
AcDbSymbolTable
 70
    59
  0
LTYPE
  5
5B
330
5
100
AcDbSymbolTableRecord
100
AcDbLinetypeTableRecord
  2
ByBlock
 70
     0
  3

 72
    65
 73
     0
 40
0.0
  0
LTYPE
  5
5C
330
5
100
AcDbSymbolTableRecord
100
AcDbLinetypeTableRecord
  2
ByLayer
 70
     0
  3

 72
    65
 73
     0
 40
0.0
  0
LTYPE
  5
5D
330
5
100
AcDbSymbolTableRecord
100
AcDbLinetypeTableRecord
  2
Continuous
 70
     0
  3
Solid line
 72
    65
 73
     0
 40
0.0
  0
LTYPE
  5
69
330
5
100
AcDbSymbolTableRecord
100
AcDbLinetypeTableRecord
  2
PHANTOM2
 70
     0
  3
Phantom (.5x) ___ _ _ ___ _ _ ___ _ _ ___ _ _
 72
    65
 73
     6
 40
1.25
 49
0.625
 74
     0
 49
-0.125
 74
     0
 49
0.125
 74
     0
 49
-0.125
 74
     0
 49
0.125
 74
     0
 49
-0.125
 74
     0
  0
LTYPE
  5
79
330
5
100
AcDbSymbolTableRecord
100
AcDbLinetypeTableRecord
  2
BY_STANDARD
 70
     0
  3
By Standard ____________    ____    ____   _
 72
    65
 73
     6
 40
1.240299999999999
 49
0.6614
 74
     0
 49
-0.0827
 74
     0
 49
0.1654
 74
     0
 49
-0.0827
 74
     0
 49
0.1654
 74
     0
 49
-0.0827
 74
     0
  0
LTYPE
  5
7A
330
5
100
AcDbSymbolTableRecord
100
AcDbLinetypeTableRecord
  2
CHAIN
 70
     0
  3
Chain ____ _ ____ _ ____ _ ____ _ ____ _ ____
 72
    65
 73
     4
 40
0.7087
 49
0.4724000000000001
 74
     0
 49
-0.0591
 74
     0
 49
0.1181
 74
     0
 49
-0.0591
 74
     0
  0
LTYPE
  5
7B
330
5
100
AcDbSymbolTableRecord
100
AcDbLinetypeTableRecord
  2
DASH_DOT
 70
     0
  3
Dash dot __ . __ . __ . __ . __ . __ . __ . __
 72
    65
 73
     4
 40
0.37
 49
0.24
 74
     0
 49
-0.06
 74
     0
 49
0.01
 74
     0
 49
-0.06
 74
     0
  0
LTYPE
  5
7C
330
5
100
AcDbSymbolTableRecord
100
AcDbLinetypeTableRecord
  2
DOUBLE_DASH_DOT
 70
     0
  3
Double-Dash Dot __ __ . __ __ . __ __ . __ _
 72
    65
 73
     6
 40
0.4398
 49
0.24
 74
     0
 49
-0.06
 74
     0
 49
0.0098
 74
     0
 49
-0.06
 74
     0
 49
0.01
 74
     0
 49
-0.06
 74
     0
  0
LTYPE
  5
7D
330
5
100
AcDbSymbolTableRecord
100
AcDbLinetypeTableRecord
  2
DASH_TRIPLE_DOT
 70
     0
  3
Dash Triple-Dot _ . . . _ . . . _ . . . _
 72
    65
 73
     8
 40
0.51
 49
0.24
 74
     0
 49
-0.06
 74
     0
 49
0.01
 74
     0
 49
-0.06
 74
     0
 49
0.01
 74
     0
 49
-0.06
 74
     0
 49
0.01
 74
     0
 49
-0.06
 74
     0
  0
LTYPE
  5
7E
330
5
100
AcDbSymbolTableRecord
100
AcDbLinetypeTableRecord
  2
DASHED
 70
     0
  3
Dashed __ __ __ __ __ __ __ __ __ __ __ __ __ _
 72
    65
 73
     2
 40
0.2067
 49
0.1654
 74
     0
 49
-0.0413
 74
     0
  0
LTYPE
  5
7F
330
5
100
AcDbSymbolTableRecord
100
AcDbLinetypeTableRecord
  2
DASH_DOUBLE_DOT
 70
     0
  3
Dash Double-Dot __ . . __ . . __ . . __ . .
 72
    65
 73
     6
 40
0.4398
 49
0.24
 74
     0
 49
-0.06
 74
     0
 49
0.0098
 74
     0
 49
-0.06
 74
     0
 49
0.01
 74
     0
 49
-0.06
 74
     0
  0
LTYPE
  5
80
330
5
100
AcDbSymbolTableRecord
100
AcDbLinetypeTableRecord
  2
DASHED_SPACE
 70
     0
  3
Dashed Space __ __ __ __ __ __ __ __ __ __ __ _
 72
    65
 73
     2
 40
0.2067
 49
0.1654
 74
     0
 49
-0.0413
 74
     0
  0
LTYPE
  5
81
330
5
100
AcDbSymbolTableRecord
100
AcDbLinetypeTableRecord
  2
DOTTED
 70
     0
  3
Dotted . . . . . . . . . . . . . . . . . . . . 
 72
    65
 73
     2
 40
0.0482
 49
0.0069
 74
     0
 49
-0.0413
 74
     0
  0
LTYPE
  5
82
330
5
100
AcDbSymbolTableRecord
100
AcDbLinetypeTableRecord
  2
DOUBLE_DASH_CHAIN
 70
     0
  3
Double-Dash Chain ______  __  __  ______  __  _
 72
    65
 73
     6
 40
1.240299999999999
 49
0.6614
 74
     0
 49
-0.0827
 74
     0
 49
0.1654
 74
     0
 49
-0.0827
 74
     0
 49
0.1654
 74
     0
 49
-0.0827
 74
     0
  0
LTYPE
  5
84
330
5
100
AcDbSymbolTableRecord
100
AcDbLinetypeTableRecord
  2
DOUBLE_DASH_DOUBLE_DOT
 70
     0
  3
Double-Dash Double-dot _ _ . . _ _ . . _
 72
    65
 73
     8
 40
0.7400000000000001
 49
0.24
 74
     0
 49
-0.06
 74
     0
 49
0.24
 74
     0
 49
-0.06
 74
     0
 49
0.01
 74
     0
 49
-0.06
 74
     0
 49
0.01
 74
     0
 49
-0.06
 74
     0
  0
LTYPE
  5
85
330
5
100
AcDbSymbolTableRecord
100
AcDbLinetypeTableRecord
  2
DOUBLE_DASH_TRIPLE_DOT
 70
     0
  3
Double Dash Triple Dot __ __ . . . __ __ . .
 72
    65
 73
    10
 40
0.8100000000000001
 49
0.24
 74
     0
 49
-0.06
 74
     0
 49
0.24
 74
     0
 49
-0.06
 74
     0
 49
0.01
 74
     0
 49
-0.06
 74
     0
 49
0.01
 74
     0
 49
-0.06
 74
     0
 49
0.01
 74
     0
 49
-0.06
 74
     0
  0
LTYPE
  5
86
330
5
100
AcDbSymbolTableRecord
100
AcDbLinetypeTableRecord
  2
LONG_DASH_DOTTED
 70
     0
  3
Long Dash Dotted ____ . ____ . ____ . ____ . _
 72
    65
 73
     4
 40
0.3543
 49
0.2362
 74
     0
 49
-0.0295
 74
     0
 49
0.0591
 74
     0
 49
-0.0295
 74
     0
  0
LTYPE
  5
87
330
5
100
AcDbSymbolTableRecord
100
AcDbLinetypeTableRecord
  2
LONG_DASH_DOUBLE_DOT
 70
     0
  3
Long Dash Double Dot ________  .  .  ________  
 72
    65
 73
     6
 40
0.6799999999999999
 49
0.48
 74
     0
 49
-0.06
 74
     0
 49
0.01
 74
     0
 49
-0.06
 74
     0
 49
0.01
 74
     0
 49
-0.06
 74
     0
  0
LTYPE
  5
88
330
5
100
AcDbSymbolTableRecord
100
AcDbLinetypeTableRecord
  2
LONG_DASH_TRIPLE_DOT
 70
     0
  3
Long Dash Triple Dot ____ ... ____ ... ____
 72
    65
 73
     8
 40
0.3689
 49
0.2362
 74
     0
 49
-0.0295
 74
     0
 49
0.0049
 74
     0
 49
-0.0295
 74
     0
 49
0.0049
 74
     0
 49
-0.0295
 74
     0
 49
0.0049
 74
     0
 49
-0.0295
 74
     0
  0
LTYPE
  5
89
330
5
100
AcDbSymbolTableRecord
100
AcDbLinetypeTableRecord
  2
BORDER
 70
     0
  3
Border __ __ . __ __ . __ __ . __ __ . __ __ .
 72
    65
 73
     6
 40
1.75
 49
0.5
 74
     0
 49
-0.25
 74
     0
 49
0.5
 74
     0
 49
-0.25
 74
     0
 49
0.0
 74
     0
 49
-0.25
 74
     0
  0
LTYPE
  5
8A
330
5
100
AcDbSymbolTableRecord
100
AcDbLinetypeTableRecord
  2
BORDER2
 70
     0
  3
Border (.5x) __.__.__.__.__.__.__.__.__.__.__.
 72
    65
 73
     6
 40
0.875
 49
0.25
 74
     0
 49
-0.125
 74
     0
 49
0.25
 74
     0
 49
-0.125
 74
     0
 49
0.0
 74
     0
 49
-0.125
 74
     0
  0
LTYPE
  5
8B
330
5
100
AcDbSymbolTableRecord
100
AcDbLinetypeTableRecord
  2
BORDERX2
 70
     0
  3
Border (2x) ____  ____  .  ____  ____  .  ___
 72
    65
 73
     6
 40
3.5
 49
1.0
 74
     0
 49
-0.5
 74
     0
 49
1.0
 74
     0
 49
-0.5
 74
     0
 49
0.0
 74
     0
 49
-0.5
 74
     0
  0
LTYPE
  5
8C
330
5
100
AcDbSymbolTableRecord
100
AcDbLinetypeTableRecord
  2
CENTER
 70
     0
  3
Center ____ _ ____ _ ____ _ ____ _ ____ _ ____
 72
    65
 73
     4
 40
2.0
 49
1.25
 74
     0
 49
-0.25
 74
     0
 49
0.25
 74
     0
 49
-0.25
 74
     0
  0
LTYPE
  5
8D
330
5
100
AcDbSymbolTableRecord
100
AcDbLinetypeTableRecord
  2
CENTER2
 70
     0
  3
Center (.5x) ___ _ ___ _ ___ _ ___ _ ___ _ ___
 72
    65
 73
     4
 40
1.125
 49
0.75
 74
     0
 49
-0.125
 74
     0
 49
0.125
 74
     0
 49
-0.125
 74
     0
  0
LTYPE
  5
8E
330
5
100
AcDbSymbolTableRecord
100
AcDbLinetypeTableRecord
  2
CENTERX2
 70
     0
  3
Center (2x) ________  __  ________  __  _____
 72
    65
 73
     4
 40
4.0
 49
2.5
 74
     0
 49
-0.5
 74
     0
 49
0.5
 74
     0
 49
-0.5
 74
     0
  0
LTYPE
  5
8F
330
5
100
AcDbSymbolTableRecord
100
AcDbLinetypeTableRecord
  2
DASHDOT2
 70
     0
  3
Dash dot (.5x) _._._._._._._._._._._._._._._.
 72
    65
 73
     4
 40
0.5
 49
0.25
 74
     0
 49
-0.125
 74
     0
 49
0.0
 74
     0
 49
-0.125
 74
     0
  0
LTYPE
  5
90
330
5
100
AcDbSymbolTableRecord
100
AcDbLinetypeTableRecord
  2
DASHDOTX2
 70
     0
  3
Dash dot (2x) ____  .  ____  .  ____  .  ___
 72
    65
 73
     4
 40
2.0
 49
1.0
 74
     0
 49
-0.5
 74
     0
 49
0.0
 74
     0
 49
-0.5
 74
     0
  0
LTYPE
  5
92
330
5
100
AcDbSymbolTableRecord
100
AcDbLinetypeTableRecord
  2
DASHED2
 70
     0
  3
Dashed (.5x) _ _ _ _ _ _ _ _ _ _ _ _ _ _ _ _ _
 72
    65
 73
     2
 40
0.375
 49
0.25
 74
     0
 49
-0.125
 74
     0
  0
LTYPE
  5
93
330
5
100
AcDbSymbolTableRecord
100
AcDbLinetypeTableRecord
  2
DASHEDX2
 70
     0
  3
Dashed (2x) ____  ____  ____  ____  ____  ___
 72
    65
 73
     2
 40
1.5
 49
1.0
 74
     0
 49
-0.5
 74
     0
  0
LTYPE
  5
94
330
5
100
AcDbSymbolTableRecord
100
AcDbLinetypeTableRecord
  2
DIVIDE
 70
     0
  3
Divide ____ . . ____ . . ____ . . ____ . . ____
 72
    65
 73
     6
 40
1.25
 49
0.5
 74
     0
 49
-0.25
 74
     0
 49
0.0
 74
     0
 49
-0.25
 74
     0
 49
0.0
 74
     0
 49
-0.25
 74
     0
  0
LTYPE
  5
95
330
5
100
AcDbSymbolTableRecord
100
AcDbLinetypeTableRecord
  2
DIVIDE2
 70
     0
  3
Divide (.5x) __..__..__..__..__..__..__..__.._
 72
    65
 73
     6
 40
0.625
 49
0.25
 74
     0
 49
-0.125
 74
     0
 49
0.0
 74
     0
 49
-0.125
 74
     0
 49
0.0
 74
     0
 49
-0.125
 74
     0
  0
LTYPE
  5
96
330
5
100
AcDbSymbolTableRecord
100
AcDbLinetypeTableRecord
  2
DIVIDEX2
 70
     0
  3
Divide (2x) ________  .  .  ________  .  .  _
 72
    65
 73
     6
 40
2.5
 49
1.0
 74
     0
 49
-0.5
 74
     0
 49
0.0
 74
     0
 49
-0.5
 74
     0
 49
0.0
 74
     0
 49
-0.5
 74
     0
  0
LTYPE
  5
97
330
5
100
AcDbSymbolTableRecord
100
AcDbLinetypeTableRecord
  2
DOT
 70
     0
  3
Dot . . . . . . . . . . . . . . . . . . . . . .
 72
    65
 73
     2
 40
0.25
 49
0.0
 74
     0
 49
-0.25
 74
     0
  0
LTYPE
  5
98
330
5
100
AcDbSymbolTableRecord
100
AcDbLinetypeTableRecord
  2
DOT2
 70
     0
  3
Dot (.5x) .....................................
 72
    65
 73
     2
 40
0.125
 49
0.0
 74
     0
 49
-0.125
 74
     0
  0
LTYPE
  5
99
330
5
100
AcDbSymbolTableRecord
100
AcDbLinetypeTableRecord
  2
DOTX2
 70
     0
  3
Dot (2x) .  .  .  .  .  .  .  .  .  .  .  .  . 
 72
    65
 73
     2
 40
0.5
 49
0.0
 74
     0
 49
-0.5
 74
     0
  0
LTYPE
  5
9A
330
5
100
AcDbSymbolTableRecord
100
AcDbLinetypeTableRecord
  2
HIDDEN
 70
     0
  3
Hidden __ __ __ __ __ __ __ __ __ __ __ __ __ _
 72
    65
 73
     2
 40
0.375
 49
0.25
 74
     0
 49
-0.125
 74
     0
  0
LTYPE
  5
9B
330
5
100
AcDbSymbolTableRecord
100
AcDbLinetypeTableRecord
  2
HIDDEN2
 70
     0
  3
Hidden (.5x) _ _ _ _ _ _ _ _ _ _ _ _ _ _ _ _ _
 72
    65
 73
     2
 40
0.1875
 49
0.125
 74
     0
 49
-0.0625
 74
     0
  0
LTYPE
  5
9C
330
5
100
AcDbSymbolTableRecord
100
AcDbLinetypeTableRecord
  2
HIDDENX2
 70
     0
  3
Hidden (2x) ____ ____ ____ ____ ____ ____ ____
 72
    65
 73
     2
 40
0.75
 49
0.5
 74
     0
 49
-0.25
 74
     0
  0
LTYPE
  5
9D
330
5
100
AcDbSymbolTableRecord
100
AcDbLinetypeTableRecord
  2
PHANTOM
 70
     0
  3
Phantom ______  __  __  ______  __  __  ______
 72
    65
 73
     6
 40
2.5
 49
1.25
 74
     0
 49
-0.25
 74
     0
 49
0.25
 74
     0
 49
-0.25
 74
     0
 49
0.25
 74
     0
 49
-0.25
 74
     0
  0
LTYPE
  5
9F
330
5
100
AcDbSymbolTableRecord
100
AcDbLinetypeTableRecord
  2
PHANTOMX2
 70
     0
  3
Phantom (2x) ____________    ____    ____   _
 72
    65
 73
     6
 40
5.0
 49
2.5
 74
     0
 49
-0.5
 74
     0
 49
0.5
 74
     0
 49
-0.5
 74
     0
 49
0.5
 74
     0
 49
-0.5
 74
     0
  0
LTYPE
  5
A0
330
5
100
AcDbSymbolTableRecord
100
AcDbLinetypeTableRecord
  2
ACAD_ISO02W100
 70
     0
  3
ISO dash __ __ __ __ __ __ __ __ __ __ __ __ __
 72
    65
 73
     2
 40
0.59
 49
0.47
 74
     0
 49
-0.12
 74
     0
  0
LTYPE
  5
A1
330
5
100
AcDbSymbolTableRecord
100
AcDbLinetypeTableRecord
  2
ACAD_ISO03W100
 70
     0
  3
ISO dash space __    __    __    __    __    __
 72
    65
 73
     2
 40
1.179999999999999
 49
0.47
 74
     0
 49
-0.71
 74
     0
  0
LTYPE
  5
A2
330
5
100
AcDbSymbolTableRecord
100
AcDbLinetypeTableRecord
  2
ACAD_ISO04W100
 70
     0
  3
ISO long-dash dot ____ . ____ . ____ . ____ . _
 72
    65
 73
     4
 40
1.179999999999999
 49
0.9399999999999998
 74
     0
 49
-0.12
 74
     0
 49
0.0
 74
     0
 49
-0.12
 74
     0
  0
LTYPE
  5
A3
330
5
100
AcDbSymbolTableRecord
100
AcDbLinetypeTableRecord
  2
ACAD_ISO05W100
 70
     0
  3
ISO long-dash double-dot ____ .. ____ .. ____ .
 72
    65
 73
     6
 40
1.299999999999999
 49
0.9399999999999998
 74
     0
 49
-0.12
 74
     0
 49
0.0
 74
     0
 49
-0.12
 74
     0
 49
0.0
 74
     0
 49
-0.12
 74
     0
  0
LTYPE
  5
A4
330
5
100
AcDbSymbolTableRecord
100
AcDbLinetypeTableRecord
  2
ACAD_ISO06W100
 70
     0
  3
ISO long-dash triple-dot ____ ... ____ ... ____
 72
    65
 73
     8
 40
1.419999999999999
 49
0.9399999999999998
 74
     0
 49
-0.12
 74
     0
 49
0.0
 74
     0
 49
-0.12
 74
     0
 49
0.0
 74
     0
 49
-0.12
 74
     0
 49
0.0
 74
     0
 49
-0.12
 74
     0
  0
LTYPE
  5
A5
330
5
100
AcDbSymbolTableRecord
100
AcDbLinetypeTableRecord
  2
ACAD_ISO07W100
 70
     0
  3
ISO dot . . . . . . . . . . . . . . . . . . . .
 72
    65
 73
     2
 40
0.12
 49
0.0
 74
     0
 49
-0.12
 74
     0
  0
LTYPE
  5
A6
330
5
100
AcDbSymbolTableRecord
100
AcDbLinetypeTableRecord
  2
ACAD_ISO08W100
 70
     0
  3
ISO long-dash short-dash ____ __ ____ __ ____ _
 72
    65
 73
     4
 40
0.95
 49
0.47
 74
     0
 49
-0.12
 74
     0
 49
0.24
 74
     0
 49
-0.12
 74
     0
  0
LTYPE
  5
A7
330
5
100
AcDbSymbolTableRecord
100
AcDbLinetypeTableRecord
  2
ACAD_ISO09W100
 70
     0
  3
ISO long-dash double-short-dash ____ __ __ ____
 72
    65
 73
     6
 40
1.31
 49
0.47
 74
     0
 49
-0.12
 74
     0
 49
0.24
 74
     0
 49
-0.12
 74
     0
 49
0.24
 74
     0
 49
-0.12
 74
     0
  0
LTYPE
  5
A8
330
5
100
AcDbSymbolTableRecord
100
AcDbLinetypeTableRecord
  2
ACAD_ISO10W100
 70
     0
  3
ISO dash dot __ . __ . __ . __ . __ . __ . __ .
 72
    65
 73
     4
 40
0.71
 49
0.47
 74
     0
 49
-0.12
 74
     0
 49
0.0
 74
     0
 49
-0.12
 74
     0
  0
LTYPE
  5
A9
330
5
100
AcDbSymbolTableRecord
100
AcDbLinetypeTableRecord
  2
ACAD_ISO11W100
 70
     0
  3
ISO double-dash dot __ __ . __ __ . __ __ . __ 
 72
    65
 73
     6
 40
1.299999999999999
 49
0.47
 74
     0
 49
-0.12
 74
     0
 49
0.47
 74
     0
 49
-0.12
 74
     0
 49
0.0
 74
     0
 49
-0.12
 74
     0
  0
LTYPE
  5
AA
330
5
100
AcDbSymbolTableRecord
100
AcDbLinetypeTableRecord
  2
ACAD_ISO12W100
 70
     0
  3
ISO dash double-dot __ . . __ . . __ . . __ . .
 72
    65
 73
     6
 40
0.8299999999999998
 49
0.47
 74
     0
 49
-0.12
 74
     0
 49
0.0
 74
     0
 49
-0.12
 74
     0
 49
0.0
 74
     0
 49
-0.12
 74
     0
  0
LTYPE
  5
AB
330
5
100
AcDbSymbolTableRecord
100
AcDbLinetypeTableRecord
  2
ACAD_ISO13W100
 70
     0
  3
ISO double-dash double-dot __ __ . . __ __ . . 
 72
    65
 73
     8
 40
1.419999999999999
 49
0.47
 74
     0
 49
-0.12
 74
     0
 49
0.47
 74
     0
 49
-0.12
 74
     0
 49
0.0
 74
     0
 49
-0.12
 74
     0
 49
0.0
 74
     0
 49
-0.12
 74
     0
  0
LTYPE
  5
AC
330
5
100
AcDbSymbolTableRecord
100
AcDbLinetypeTableRecord
  2
ACAD_ISO14W100
 70
     0
  3
ISO dash triple-dot __ . . . __ . . . __ . . . 
 72
    65
 73
     8
 40
0.95
 49
0.47
 74
     0
 49
-0.12
 74
     0
 49
0.0
 74
     0
 49
-0.12
 74
     0
 49
0.0
 74
     0
 49
-0.12
 74
     0
 49
0.0
 74
     0
 49
-0.12
 74
     0
  0
LTYPE
  5
AD
330
5
100
AcDbSymbolTableRecord
100
AcDbLinetypeTableRecord
  2
ACAD_ISO15W100
 70
     0
  3
ISO double-dash triple-dot __ __ . . . __ __ . 
 72
    65
 73
    10
 40
1.539999999999999
 49
0.47
 74
     0
 49
-0.12
 74
     0
 49
0.47
 74
     0
 49
-0.12
 74
     0
 49
0.0
 74
     0
 49
-0.12
 74
     0
 49
0.0
 74
     0
 49
-0.12
 74
     0
 49
0.0
 74
     0
 49
-0.12
 74
     0
  0
LTYPE
  5
B0
330
5
100
AcDbSymbolTableRecord
100
AcDbLinetypeTableRecord
  2
FENCELINE1
 70
     0
  3
Fenceline circle ----0-----0----0-----0----0---
 72
    65
 73
     4
 40
1.45
 49
0.25
 74
     0
 49
-0.1
 74
     4
 75
   133
340
AF
 46
0.1
 50
0.0
 44
-0.1
 45
0.0
 49
-0.1
 74
     0
 49
1.0
 74
     0
  0
LTYPE
  5
B1
330
5
100
AcDbSymbolTableRecord
100
AcDbLinetypeTableRecord
  2
FENCELINE2
 70
     0
  3
Fenceline square ----[]-----[]----[]-----[]----
 72
    65
 73
     4
 40
1.45
 49
0.25
 74
     0
 49
-0.1
 74
     4
 75
   132
340
AF
 46
0.1
 50
0.0
 44
-0.1
 45
0.0
 49
-0.1
 74
     0
 49
1.0
 74
     0
  0
LTYPE
  5
B2
330
5
100
AcDbSymbolTableRecord
100
AcDbLinetypeTableRecord
  2
TRACKS
 70
     0
  3
Tracks -|-|-|-|-|-|-|-|-|-|-|-|-|-|-|-|-|-|-|-|
 72
    65
 73
     2
 40
0.3
 49
0.15
 74
     4
 75
   130
340
AF
 46
0.25
 50
0.0
 44
0.0
 45
0.0
 49
0.15
 74
     0
  0
LTYPE
  5
B3
330
5
100
AcDbSymbolTableRecord
100
AcDbLinetypeTableRecord
  2
BATTING
 70
     0
  3
Batting SSSSSSSSSSSSSSSSSSSSSSSSSSSSSSSSSSSSSSS
 72
    65
 73
     4
 40
0.4001000000000001
 49
0.0001
 74
     0
 49
-0.1
 74
     4
 75
   134
340
AF
 46
0.1
 50
0.0
 44
-0.1
 45
0.0
 49
-0.2
 74
     4
 75
   134
340
AF
 46
0.1
 50
180.0
 44
0.1
 45
0.0
 49
-0.1
 74
     0
  0
LTYPE
  5
B4
330
5
100
AcDbSymbolTableRecord
100
AcDbLinetypeTableRecord
  2
HOT_WATER_SUPPLY
 70
     0
  3
Hot water supply ---- HW ---- HW ---- HW ----
 72
    65
 73
     3
 40
0.9
 49
0.5
 74
     0
 49
-0.2
 74
     2
 75
     0
340
55
 46
0.1
 50
0.0
 44
-0.1
 45
-0.05
  9
HW
 49
-0.2
 74
     0
  0
LTYPE
  5
B5
330
5
100
AcDbSymbolTableRecord
100
AcDbLinetypeTableRecord
  2
GAS_LINE
 70
     0
  3
Gas line ----GAS----GAS----GAS----GAS----GAS---
 72
    65
 73
     3
 40
0.95
 49
0.5
 74
     0
 49
-0.2
 74
     2
 75
     0
340
55
 46
0.1
 50
0.0
 44
-0.1
 45
-0.05
  9
GAS
 49
-0.25
 74
     0
  0
LTYPE
  5
B6
330
5
100
AcDbSymbolTableRecord
100
AcDbLinetypeTableRecord
  2
ZIGZAG
 70
     0
  3
Zig zag /\/\/\/\/\/\/\/\/\/\/\/\/\/\/\/\/\/\/\/
 72
    65
 73
     4
 40
0.8001000000000001
 49
0.0001
 74
     0
 49
-0.2
 74
     4
 75
   131
340
AF
 46
0.2
 50
0.0
 44
-0.2
 45
0.0
 49
-0.4
 74
     4
 75
   131
340
AF
 46
0.2
 50
180.0
 44
0.2
 45
0.0
 49
-0.2
 74
     0
  0
ENDTAB
  0
TABLE
  2
LAYER
  5
2
330
0
100
AcDbSymbolTable
 70
    32
  0
LAYER
  5
54
330
2
100
AcDbSymbolTableRecord
100
AcDbLayerTableRecord
  2
0
 70
     0
 62
     7
  6
Continuous
370
    25
390
F
  0
LAYER
  5
BB
330
2
100
AcDbSymbolTableRecord
100
AcDbLayerTableRecord
  2
Border (ANSI)
 70
     0
 62
     7
  6
Continuous
370
    35
390
F
  0
LAYER
  5
C0
330
2
100
AcDbSymbolTableRecord
100
AcDbLayerTableRecord
  2
Dimension (ANSI)
 70
     0
 62
     7
  6
Continuous
370
    25
390
F
  0
LAYER
  5
C2
330
2
100
AcDbSymbolTableRecord
100
AcDbLayerTableRecord
  2
Hidden (ANSI)
 70
     0
 62
     7
  6
DASHED
370
    18
390
F
  0
LAYER
  5
CB
330
2
100
AcDbSymbolTableRecord
100
AcDbLayerTableRecord
  2
Symbol (ANSI)
 70
     0
 62
     7
  6
Continuous
370
    25
390
F
  0
LAYER
  5
CC
330
2
100
AcDbSymbolTableRecord
100
AcDbLayerTableRecord
  2
Title (ANSI)
 70
     0
 62
     7
  6
Continuous
370
    25
390
F
  0
LAYER
  5
CE
330
2
100
AcDbSymbolTableRecord
100
AcDbLayerTableRecord
  2
Visible (ANSI)
 70
     0
 62
     7
  6
Continuous
370
    25
390
F
  0
LAYER
  5
CF
330
2
100
AcDbSymbolTableRecord
100
AcDbLayerTableRecord
  2
Visible Narrow (ANSI)
 70
     0
 62
     7
  6
Continuous
370
    25
390
F
  0
LAYER
  5
231
330
2
100
AcDbSymbolTableRecord
100
AcDbLayerTableRecord
  2
Defpoints
 70
     0
 62
     7
  6
Continuous
290
     0
370
    -3
390
F
  0
ENDTAB
  0
TABLE
  2
STYLE
  5
3
330
0
100
AcDbSymbolTable
 70
    11
  0
STYLE
  5
55
330
3
100
AcDbSymbolTableRecord
100
AcDbTextStyleTableRecord
  2
Standard
 70
     0
 40
0.0
 41
1.0
 50
0.0
 71
     0
 42
0.2
  3
comic.ttf
  4

1001
ACAD
1000
Comic Sans MS
1071
      256
  0
STYLE
  5
5A
330
3
100
AcDbSymbolTableRecord
100
AcDbTextStyleTableRecord
  2
Annotative
 70
     0
 40
0.0
 41
1.0
 50
0.0
 71
     0
 42
0.2
  3
txt
  4

1001
AcadAnnotative
1000
AnnotativeData
1002
{
1070
     1
1070
     1
1002
}
  0
STYLE
  5
AF
330
3
100
AcDbSymbolTableRecord
100
AcDbTextStyleTableRecord
  2

 70
     1
 40
0.0
 41
1.0
 50
0.0
 71
     0
 42
0.2
  3
ltypeshp.shx
  4

  0
STYLE
  5
D5
330
3
100
AcDbSymbolTableRecord
100
AcDbTextStyleTableRecord
  2
Garamond_62
 70
     0
 40
0.0
 41
1.0
 50
0.0
 71
     0
 42
0.2
  3
GARA.TTF
  4

1001
ACAD
1000
Garamond
1071
      256
  0
STYLE
  5
D6
330
3
100
AcDbSymbolTableRecord
100
AcDbTextStyleTableRecord
  2
Garamond_65
 70
     0
 40
0.0
 41
1.0
 50
0.0
 71
     0
 42
0.2
  3
GARA.TTF
  4

1001
ACAD
1000
Garamond
1071
      256
  0
STYLE
  5
D7
330
3
100
AcDbSymbolTableRecord
100
AcDbTextStyleTableRecord
  2
Garamond_68
 70
     0
 40
0.0
 41
1.0
 50
0.0
 71
     0
 42
0.2
  3
GARA.TTF
  4

1001
ACAD
1000
Garamond
1071
      256
  0
STYLE
  5
D8
330
3
100
AcDbSymbolTableRecord
100
AcDbTextStyleTableRecord
  2
Garamond_71
 70
     0
 40
0.0
 41
1.0
 50
0.0
 71
     0
 42
0.2
  3
GARA.TTF
  4

1001
ACAD
1000
Garamond
1071
      256
  0
STYLE
  5
D9
330
3
100
AcDbSymbolTableRecord
100
AcDbTextStyleTableRecord
  2
Label Text (ANSI)
 70
     0
 40
0.0
 41
1.0
 50
0.0
 71
     0
 42
0.2
  3
comic.ttf
  4

1001
ACAD
1000
Comic Sans MS
1071
      256
  0
STYLE
  5
DA
330
3
100
AcDbSymbolTableRecord
100
AcDbTextStyleTableRecord
  2
Note Text (ANSI)
 70
     0
 40
0.0
 41
1.0
 50
0.0
 71
     0
 42
0.2
  3
tahoma.ttf
  4

1001
ACAD
1000
Tahoma
1071
      256
  0
STYLE
  5
1B7
330
3
100
AcDbSymbolTableRecord
100
AcDbTextStyleTableRecord
  2
Text Style40
 70
     0
 40
0.0
 41
1.0
 50
0.0
 71
     0
 42
0.2
  3
tahoma.ttf
  4

1001
ACAD
1000
Tahoma
1071
      256
  0
STYLE
  5
1BD
330
3
100
AcDbSymbolTableRecord
100
AcDbTextStyleTableRecord
  2
Text Style39
 70
     0
 40
0.0
 41
1.0
 50
0.0
 71
     0
 42
0.2
  3
tahoma.ttf
  4

1001
ACAD
1000
Tahoma
1071
      256
  0
ENDTAB
  0
TABLE
  2
VIEW
  5
6
330
0
100
AcDbSymbolTable
 70
     0
  0
ENDTAB
  0
TABLE
  2
UCS
  5
7
330
0
100
AcDbSymbolTable
 70
     0
  0
ENDTAB
  0
TABLE
  2
APPID
  5
9
330
0
100
AcDbSymbolTable
 70
     5
  0
APPID
  5
56
330
9
100
AcDbSymbolTableRecord
100
AcDbRegAppTableRecord
  2
ACAD
 70
     0
  0
APPID
  5
5E
330
9
100
AcDbSymbolTableRecord
100
AcDbRegAppTableRecord
  2
AcadAnnotative
 70
     0
  0
APPID
  5
1BA
330
9
100
AcDbSymbolTableRecord
100
AcDbRegAppTableRecord
  2
AcadAnnoPO
 70
     0
  0
APPID
  5
2BF
330
9
100
AcDbSymbolTableRecord
100
AcDbRegAppTableRecord
  2
ACAD_DSTYLE_DIMRADIAL_EXTENSION
 70
     0
  0
APPID
  5
97C
330
9
100
AcDbSymbolTableRecord
100
AcDbRegAppTableRecord
  2
ACAD_MLEADERVER
 70
     0
  0
ENDTAB
  0
TABLE
  2
DIMSTYLE
  5
A
330
0
100
AcDbSymbolTable
 70
    22
100
AcDbDimStyleTable
 71
     3
340
112
340
58
340
114
  0
DIMSTYLE
105
58
330
A
100
AcDbSymbolTableRecord
100
AcDbDimStyleTableRecord
  2
Standard
 70
     0
 40
2.0
 41
0.0700000002980232
 43
0.125
 44
0.0625
 45
0.00000001
 73
     0
 78
     1
140
0.1000000014901161
147
0.03
170
     1
171
     0
176
   256
177
   256
178
   256
179
     1
274
     0
276
     1
277
     5
340
55
341
F4
342
E5
371
    -1
372
    -1
  0
DIMSTYLE
105
59
330
A
100
AcDbSymbolTableRecord
100
AcDbDimStyleTableRecord
  2
Annotative
 70
     0
340
55
1001
AcadAnnotative
1000
AnnotativeData
1002
{
1070
     1
1070
     1
1002
}
  0
DIMSTYLE
105
DB
330
A
100
AcDbSymbolTableRecord
100
AcDbDimStyleTableRecord
  2
Architectural (ANSI)
 70
     0
 40
2.0
 41
0.0984251946210861
 43
0.2362204724409449
 44
0.125
 45
0.00000001
 46
0.3937007874015748
 78
     3
 79
     3
140
0.1000000014901161
146
1.200000047683715
147
0.031496062992126
171
     1
176
   256
177
   256
178
   256
272
     2
274
     1
276
     2
277
     4
284
    12
285
     4
286
    12
340
DA
371
    -1
372
    -1
  0
DIMSTYLE
105
DC
330
A
100
AcDbSymbolTableRecord
100
AcDbDimStyleTableRecord
  2
Architectural (ANSI)$7
 70
     0
 40
2.0
 41
0.0984251946210861
 43
0.2362204724409449
 44
0.125
 45
0.00000001
 46
0.3937007874015748
 78
     3
 79
     3
140
0.1000000014901161
146
1.200000047683715
147
0.031496062992126
171
     1
176
   256
177
   256
178
   256
272
     2
274
     1
276
     2
277
     4
284
    12
285
     4
286
    12
340
DA
371
    -1
372
    -1
  0
DIMSTYLE
105
DD
330
A
100
AcDbSymbolTableRecord
100
AcDbDimStyleTableRecord
  2
Default - Fraction (ANSI)
 70
     0
 40
2.0
 41
0.0984251946210861
 43
0.2362204724409449
 44
0.125
 45
0.00000001
 46
0.3937007874015748
 79
     3
140
0.1000000014901161
146
1.200000047683715
147
0.031496062992126
171
     1
176
   256
177
   256
178
   256
272
     2
274
     1
276
     2
277
     5
284
    12
285
     4
286
    12
340
DA
371
    -1
372
    -1
  0
DIMSTYLE
105
DE
330
A
100
AcDbSymbolTableRecord
100
AcDbDimStyleTableRecord
  2
Default - Fraction (ANSI)$7
 70
     0
 40
2.0
 41
0.0984251946210861
 43
0.2362204724409449
 44
0.125
 45
0.00000001
 46
0.3937007874015748
 79
     3
140
0.1000000014901161
146
1.200000047683715
147
0.031496062992126
171
     1
176
   256
177
   256
178
   256
272
     2
274
     1
276
     2
277
     5
284
    12
285
     4
286
    12
340
DA
371
    -1
372
    -1
  0
DIMSTYLE
105
DF
330
A
100
AcDbSymbolTableRecord
100
AcDbDimStyleTableRecord
  2
Default - mm (ANSI)
 70
     0
 40
2.0
 41
0.0984251946210861
 42
0.063
 43
0.2362204724409449
 44
0.125
 45
0.00000001
 46
0.3937007874015748
 73
     0
 78
     4
 79
     1
140
0.1000000014901161
143
1.0
144
25.4
146
1.200000047683715
147
0.031496062992126
171
     1
176
   256
177
   256
178
   256
179
     1
271
     2
272
     2
274
     1
284
     4
285
     4
340
DA
371
    -1
372
    -1
  0
DIMSTYLE
105
E0
330
A
100
AcDbSymbolTableRecord
100
AcDbDimStyleTableRecord
  2
Default - mm (ANSI)$7
 70
     0
 40
2.0
 41
0.0984251946210861
 42
0.063
 43
0.2362204724409449
 44
0.125
 45
0.00000001
 46
0.3937007874015748
 73
     0
 78
     4
 79
     1
140
0.1000000014901161
143
1.0
144
25.4
146
1.200000047683715
147
0.031496062992126
171
     1
176
   256
177
   256
178
   256
179
     1
271
     2
272
     2
274
     1
284
     4
285
     4
340
DA
371
    -1
372
    -1
  0
DIMSTYLE
105
E1
330
A
100
AcDbSymbolTableRecord
100
AcDbDimStyleTableRecord
  2
Default - mm [in] (ANSI)
 70
     0
  4
 in
 40
2.0
 41
0.0984251946210861
 42
0.063
 43
0.25
 44
0.125
 45
0.00000001
 46
0.3937007874015748
 73
     0
 78
     4
 79
     1
140
0.1000000014901161
143
0.03937
144
25.4
146
1.200000047683715
147
0.031496062992126
170
     1
171
     3
176
   256
177
   256
178
   256
179
     1
271
     2
272
     2
274
     3
284
     4
285
     4
286
     4
340
DA
371
    -1
372
    -1
  0
DIMSTYLE
105
E2
330
A
100
AcDbSymbolTableRecord
100
AcDbDimStyleTableRecord
  2
Default - mm [in] (ANSI)$7
 70
     0
  4
 in
 40
2.0
 41
0.0984251946210861
 42
0.063
 43
0.25
 44
0.125
 45
0.00000001
 46
0.3937007874015748
 73
     0
 78
     4
 79
     1
140
0.1000000014901161
143
0.03937
144
25.4
146
1.200000047683715
147
0.031496062992126
170
     1
171
     3
176
   256
177
   256
178
   256
179
     1
271
     2
272
     2
274
     3
284
     4
285
     4
286
     4
340
DA
371
    -1
372
    -1
  0
DIMSTYLE
105
E3
330
A
100
AcDbSymbolTableRecord
100
AcDbDimStyleTableRecord
  2
Default (ANSI)
 70
     0
 40
2.0
 41
0.0984251946210861
 43
0.2362204724409449
 44
0.125
 45
0.00000001
 46
0.3937007874015748
 78
     4
 79
     1
140
0.1000000014901161
146
1.200000047683715
147
0.031496062992126
171
     1
176
   256
177
   256
178
   256
271
     2
272
     2
274
     1
284
     4
285
     4
340
DA
371
    -1
372
    -1
  0
DIMSTYLE
105
E4
330
A
100
AcDbSymbolTableRecord
100
AcDbDimStyleTableRecord
  2
Default (ANSI)$7
 70
     0
 40
2.0
 41
0.0984251946210861
 43
0.2362204724409449
 44
0.125
 45
0.00000001
 46
0.3937007874015748
 78
     4
 79
     1
140
0.1000000014901161
146
1.200000047683715
147
0.031496062992126
171
     1
176
   256
177
   256
178
   256
271
     2
272
     2
274
     1
284
     4
285
     4
340
DA
371
    -1
372
    -1
  0
DIMSTYLE
105
111
330
A
100
AcDbSymbolTableRecord
100
AcDbDimStyleTableRecord
  2
Standard$7
 70
     0
 40
2.0
 41
0.0700000002980232
 43
0.125
 44
0.0625
 45
0.00000001
 73
     0
 78
     1
140
0.1000000014901161
147
0.03
170
     1
171
     0
176
   256
177
   256
178
   256
179
     1
274
     0
276
     1
277
     5
340
55
341
F4
342
E5
371
    -1
372
    -1
  0
DIMSTYLE
105
112
102
{ACAD_REACTORS
330
3CE
330
4CC
330
575
330
6F4
330
7F2
102
}
330
A
100
AcDbSymbolTableRecord
100
AcDbDimStyleTableRecord
  2
Standard 0.00
 70
     0
 40
2.0
 41
0.0700000002980232
 43
0.125
 44
0.0625
 45
0.00000001
 73
     0
140
0.1000000014901161
147
0.03
170
     1
171
     1
176
   256
177
   256
178
   256
179
     1
271
     2
272
     2
274
     1
340
55
341
F4
342
E5
371
    -1
372
    -1
  0
DIMSTYLE
105
113
330
A
100
AcDbSymbolTableRecord
100
AcDbDimStyleTableRecord
  2
Standard 0.00$7
 70
     0
 40
2.0
 41
0.0700000002980232
 43
0.125
 44
0.0625
 45
0.00000001
 73
     0
140
0.1000000014901161
147
0.03
170
     1
171
     1
176
   256
177
   256
178
   256
179
     1
271
     2
272
     2
274
     1
340
55
341
F4
342
E5
371
    -1
372
    -1
  0
DIMSTYLE
105
114
102
{ACAD_REACTORS
330
22F
330
2CE
330
60C
102
}
330
A
100
AcDbSymbolTableRecord
100
AcDbDimStyleTableRecord
  2
Standard 0.000
 70
     0
 40
2.0
 41
0.0700000002980232
 43
0.125
 44
0.0625
 45
0.00000001
 73
     0
140
0.1000000014901161
147
0.03
170
     1
176
   256
177
   256
178
   256
179
     1
271
     3
272
     3
340
55
341
F4
342
E5
371
    -1
372
    -1
  0
DIMSTYLE
105
115
330
A
100
AcDbSymbolTableRecord
100
AcDbDimStyleTableRecord
  2
Standard 0.000$7
 70
     0
 40
2.0
 41
0.0700000002980232
 43
0.125
 44
0.0625
 45
0.00000001
 73
     0
140
0.1000000014901161
147
0.03
170
     1
176
   256
177
   256
178
   256
179
     1
271
     3
272
     3
340
55
341
F4
342
E5
371
    -1
372
    -1
  0
DIMSTYLE
105
116
330
A
100
AcDbSymbolTableRecord
100
AcDbDimStyleTableRecord
  2
Standard Arch
 70
     0
 40
2.0
 41
0.0700000002980232
 43
0.125
 44
0.0625
 45
0.00000001
 73
     0
 78
     1
140
0.1000000014901161
146
1.799999952316284
147
0.03
171
     0
176
   256
177
   256
178
   256
179
     1
274
     0
276
     1
277
     4
340
55
341
F4
342
E5
371
    -1
372
    -1
  0
DIMSTYLE
105
117
330
A
100
AcDbSymbolTableRecord
100
AcDbDimStyleTableRecord
  2
Standard Arch$7
 70
     0
 40
2.0
 41
0.0700000002980232
 43
0.125
 44
0.0625
 45
0.00000001
 73
     0
 78
     1
140
0.1000000014901161
146
1.799999952316284
147
0.03
171
     0
176
   256
177
   256
178
   256
179
     1
274
     0
276
     1
277
     4
340
55
341
F4
342
E5
371
    -1
372
    -1
  0
DIMSTYLE
105
118
330
A
100
AcDbSymbolTableRecord
100
AcDbDimStyleTableRecord
  2
Alternate (ANSI)
 70
     0
 40
2.0
 41
0.0979999974370003
340
55
342
119
  0
DIMSTYLE
105
12A
330
A
100
AcDbSymbolTableRecord
100
AcDbDimStyleTableRecord
  2
Datum (ANSI)
 70
     0
 40
2.0
 41
0.0979999974370003
340
55
342
119
  0
DIMSTYLE
105
139
330
A
100
AcDbSymbolTableRecord
100
AcDbDimStyleTableRecord
  2
Large (ANSI)
 70
     0
 40
2.0
 41
0.1959999948740005
340
55
342
119
  0
ENDTAB
  0
TABLE
  2
BLOCK_RECORD
  5
1
330
0
100
AcDbSymbolTable
 70
    17
  0
BLOCK_RECORD
  5
71
102
{ACAD_XDICTIONARY
360
8DC
102
}
330
1
100
AcDbSymbolTableRecord
100
AcDbBlockTableRecord
  2
*Model_Space
340
74
  0
BLOCK_RECORD
  5
6D
330
1
100
AcDbSymbolTableRecord
100
AcDbBlockTableRecord
  2
*Paper_Space
340
70
  0
BLOCK_RECORD
  5
75
330
1
100
AcDbSymbolTableRecord
100
AcDbBlockTableRecord
  2
*Paper_Space0
340
78
  0
BLOCK_RECORD
  5
E5
330
1
100
AcDbSymbolTableRecord
100
AcDbBlockTableRecord
  2
Flared Half 1-1
340
0
102
{BLKREFS
331
2C9
331
2CA
331
3C9
331
3CA
331
4C7
331
4C8
331
570
331
571
331
609
331
6EE
331
6EF
331
7ED
331
7EE
331
8D4
331
8D5
102
}
  0
BLOCK_RECORD
  5
F4
330
1
100
AcDbSymbolTableRecord
100
AcDbBlockTableRecord
  2
Flared-1
340
0
  0
BLOCK_RECORD
  5
119
330
1
100
AcDbSymbolTableRecord
100
AcDbBlockTableRecord
  2
_Closed
340
0
  0
BLOCK_RECORD
  5
120
330
1
100
AcDbSymbolTableRecord
100
AcDbBlockTableRecord
  2
DatumFilled45
340
0
  0
BLOCK_RECORD
  5
12B
330
1
100
AcDbSymbolTableRecord
100
AcDbBlockTableRecord
  2
Filled-1
340
0
  0
BLOCK_RECORD
  5
13A
330
1
100
AcDbSymbolTableRecord
100
AcDbBlockTableRecord
  2
iges File
340
0
  0
BLOCK_RECORD
  5
13F
330
1
100
AcDbSymbolTableRecord
100
AcDbBlockTableRecord
  2
Borders Default Border
340
0
102
{BLKREFS
331
16D
102
}
  0
BLOCK_RECORD
  5
16E
330
1
100
AcDbSymbolTableRecord
100
AcDbBlockTableRecord
  2
Title Blocks Wagner Component Title Block
340
0
102
{BLKREFS
331
1C9
102
}
  0
BLOCK_RECORD
  5
232
330
1
100
AcDbSymbolTableRecord
100
AcDbBlockTableRecord
  2
*D9
340
0
  0
BLOCK_RECORD
  5
2CF
330
1
100
AcDbSymbolTableRecord
100
AcDbBlockTableRecord
  2
*D10
340
0
  0
BLOCK_RECORD
  5
3CF
330
1
100
AcDbSymbolTableRecord
100
AcDbBlockTableRecord
  2
*D11
340
0
  0
BLOCK_RECORD
  5
4CD
330
1
100
AcDbSymbolTableRecord
100
AcDbBlockTableRecord
  2
*D12
340
0
  0
BLOCK_RECORD
  5
576
330
1
100
AcDbSymbolTableRecord
100
AcDbBlockTableRecord
  2
*D13
340
0
  0
BLOCK_RECORD
  5
60D
330
1
100
AcDbSymbolTableRecord
100
AcDbBlockTableRecord
  2
*D14
340
0
  0
BLOCK_RECORD
  5
6F5
330
1
100
AcDbSymbolTableRecord
100
AcDbBlockTableRecord
  2
*D15
340
0
  0
BLOCK_RECORD
  5
7F3
330
1
100
AcDbSymbolTableRecord
100
AcDbBlockTableRecord
  2
*D16
340
0
  0
ENDTAB
  0
ENDSEC
  0
SECTION
  2
BLOCKS
  0
BLOCK
  5
72
330
71
100
AcDbEntity
  8
0
100
AcDbBlockBegin
  2
*Model_Space
 70
     0
 10
0.0
 20
0.0
 30
0.0
  3
*Model_Space
  1

  0
ENDBLK
  5
73
330
71
100
AcDbEntity
  8
0
100
AcDbBlockEnd
  0
BLOCK
  5
6E
330
6D
100
AcDbEntity
 67
     1
  8
0
100
AcDbBlockBegin
  2
*Paper_Space
 70
     0
 10
0.0
 20
0.0
 30
0.0
  3
*Paper_Space
  1

  0
ENDBLK
  5
6F
330
6D
100
AcDbEntity
 67
     1
  8
0
100
AcDbBlockEnd
  0
BLOCK
  5
76
330
75
100
AcDbEntity
 67
     1
  8
0
100
AcDbBlockBegin
  2
*Paper_Space0
 70
     0
 10
0.0
 20
0.0
 30
0.0
  3
*Paper_Space0
  1

  0
ENDBLK
  5
77
330
75
100
AcDbEntity
 67
     1
  8
0
100
AcDbBlockEnd
  0
BLOCK
  5
E6
330
E5
100
AcDbEntity
  8
0
100
AcDbBlockBegin
  2
Flared Half 1-1
 70
     0
 10
0.0
 20
0.0
 30
0.0
  3
Flared Half 1-1
  1

  0
LINE
  5
E8
330
E5
100
AcDbEntity
  8
0
 62
     0
100
AcDbLine
 10
-0.9999999999999998
 20
0.0
 30
0.0
 11
0.0
 21
0.0
 31
0.0
  0
POLYLINE
  5
EA
330
E5
100
AcDbEntity
  8
0
 62
     0
100
AcDb2dPolyline
 66
     1
 10
0.0
 20
0.0
 30
0.0
 70
   128
  0
VERTEX
  5
EB
330
EA
100
AcDbEntity
  8
0
 62
     0
100
AcDbVertex
100
AcDb2dVertex
 10
0.0
 20
0.0
 30
0.0
  0
VERTEX
  5
EC
330
EA
100
AcDbEntity
  8
0
 62
     0
100
AcDbVertex
100
AcDb2dVertex
 10
-0.9999999999999998
 20
0.2857142857142856
 30
0.0
  0
VERTEX
  5
EE
330
EA
100
AcDbEntity
  8
0
 62
     0
100
AcDbVertex
100
AcDb2dVertex
 10
-0.6499999761581421
 20
0.0
 30
0.0
  0
VERTEX
  5
EF
330
EA
100
AcDbEntity
  8
0
 62
     0
100
AcDbVertex
100
AcDb2dVertex
 10
0.0
 20
0.0
 30
0.0
  0
SEQEND
  5
ED
330
EA
100
AcDbEntity
  8
0
 62
     0
  0
SOLID
  5
F0
330
E5
100
AcDbEntity
  8
0
 62
     0
100
AcDbTrace
 10
0.0
 20
0.0
 30
0.0
 11
-0.9999999999999998
 21
0.2857142857142856
 31
0.0
 12
-0.6499999761581421
 22
0.0
 32
0.0
 13
0.0
 23
0.0
 33
0.0
  0
LINE
  5
F1
330
E5
100
AcDbEntity
  8
0
 62
     0
100
AcDbLine
 10
0.0
 20
0.0
 30
0.0
 11
-0.9999999999999998
 21
0.2857142857142856
 31
0.0
  0
LINE
  5
F2
330
E5
100
AcDbEntity
  8
0
 62
     0
100
AcDbLine
 10
-0.9999999999999998
 20
0.2857142857142856
 30
0.0
 11
-0.65
 21
0.0
 31
0.0
  0
LINE
  5
F3
330
E5
100
AcDbEntity
  8
0
 62
     0
100
AcDbLine
 10
-0.65
 20
0.0
 30
0.0
 11
0.0
 21
0.0
 31
0.0
  0
ENDBLK
  5
E7
330
E5
100
AcDbEntity
  8
0
100
AcDbBlockEnd
  0
BLOCK
  5
F5
330
F4
100
AcDbEntity
  8
0
100
AcDbBlockBegin
  2
Flared-1
 70
     0
 10
0.0
 20
0.0
 30
0.0
  3
Flared-1
  1

  0
LINE
  5
F7
330
F4
100
AcDbEntity
  8
0
 62
     0
100
AcDbLine
 10
-0.9999999999999998
 20
0.0
 30
0.0
 11
0.0
 21
0.0
 31
0.0
  0
POLYLINE
  5
F8
330
F4
100
AcDbEntity
  8
0
 62
     0
100
AcDb2dPolyline
 66
     1
 10
0.0
 20
0.0
 30
0.0
 70
   128
  0
VERTEX
  5
F9
330
F8
100
AcDbEntity
  8
0
 62
     0
100
AcDbVertex
100
AcDb2dVertex
 10
-0.6499999761581421
 20
0.0
 30
0.0
  0
VERTEX
  5
FA
330
F8
100
AcDbEntity
  8
0
 62
     0
100
AcDbVertex
100
AcDb2dVertex
 10
-0.9999999999999998
 20
-0.2857142857142856
 30
0.0
  0
VERTEX
  5
FC
330
F8
100
AcDbEntity
  8
0
 62
     0
100
AcDbVertex
100
AcDb2dVertex
 10
0.0
 20
0.0
 30
0.0
  0
VERTEX
  5
FD
330
F8
100
AcDbEntity
  8
0
 62
     0
100
AcDbVertex
100
AcDb2dVertex
 10
-0.6499999761581421
 20
0.0
 30
0.0
  0
SEQEND
  5
FB
330
F8
100
AcDbEntity
  8
0
 62
     0
  0
SOLID
  5
FE
330
F4
100
AcDbEntity
  8
0
 62
     0
100
AcDbTrace
 10
-0.6499999761581421
 20
0.0
 30
0.0
 11
-0.9999999999999998
 21
-0.2857142857142856
 31
0.0
 12
0.0
 22
0.0
 32
0.0
 13
-0.6499999761581421
 23
0.0
 33
0.0
  0
POLYLINE
  5
FF
330
F4
100
AcDbEntity
  8
0
 62
     0
100
AcDb2dPolyline
 66
     1
 10
0.0
 20
0.0
 30
0.0
 70
   128
  0
VERTEX
  5
100
330
FF
100
AcDbEntity
  8
0
 62
     0
100
AcDbVertex
100
AcDb2dVertex
 10
-0.6499999761581421
 20
0.0
 30
0.0
  0
VERTEX
  5
101
330
FF
100
AcDbEntity
  8
0
 62
     0
100
AcDbVertex
100
AcDb2dVertex
 10
0.0
 20
0.0
 30
0.0
  0
VERTEX
  5
103
330
FF
100
AcDbEntity
  8
0
 62
     0
100
AcDbVertex
100
AcDb2dVertex
 10
-0.9999999999999998
 20
0.2857142857142856
 30
0.0
  0
VERTEX
  5
104
330
FF
100
AcDbEntity
  8
0
 62
     0
100
AcDbVertex
100
AcDb2dVertex
 10
-0.6499999761581421
 20
0.0
 30
0.0
  0
SEQEND
  5
102
330
FF
100
AcDbEntity
  8
0
 62
     0
  0
SOLID
  5
105
330
F4
100
AcDbEntity
  8
0
 62
     0
100
AcDbTrace
 10
-0.6499999761581421
 20
0.0
 30
0.0
 11
0.0
 21
0.0
 31
0.0
 12
-0.9999999999999998
 22
0.2857142857142856
 32
0.0
 13
-0.6499999761581421
 23
0.0
 33
0.0
  0
POLYLINE
  5
106
330
F4
100
AcDbEntity
  8
0
 62
     0
100
AcDb2dPolyline
 66
     1
 10
0.0
 20
0.0
 30
0.0
 70
   128
  0
VERTEX
  5
107
330
106
100
AcDbEntity
  8
0
 62
     0
100
AcDbVertex
100
AcDb2dVertex
 10
-0.6499999761581421
 20
0.0
 30
0.0
  0
VERTEX
  5
108
330
106
100
AcDbEntity
  8
0
 62
     0
100
AcDbVertex
100
AcDb2dVertex
 10
-0.9999999999999998
 20
0.2857142857142856
 30
0.0
  0
VERTEX
  5
10A
330
106
100
AcDbEntity
  8
0
 62
     0
100
AcDbVertex
100
AcDb2dVertex
 10
-0.6499999761581421
 20
0.0
 30
0.0
  0
VERTEX
  5
10B
330
106
100
AcDbEntity
  8
0
 62
     0
100
AcDbVertex
100
AcDb2dVertex
 10
-0.6499999761581421
 20
0.0
 30
0.0
  0
SEQEND
  5
109
330
106
100
AcDbEntity
  8
0
 62
     0
  0
SOLID
  5
10C
330
F4
100
AcDbEntity
  8
0
 62
     0
100
AcDbTrace
 10
-0.6499999761581421
 20
0.0
 30
0.0
 11
-0.9999999999999998
 21
0.2857142857142856
 31
0.0
 12
-0.6499999761581421
 22
0.0
 32
0.0
 13
-0.6499999761581421
 23
0.0
 33
0.0
  0
LINE
  5
10D
330
F4
100
AcDbEntity
  8
0
 62
     0
100
AcDbLine
 10
-0.65
 20
0.0
 30
0.0
 11
-0.9999999999999998
 21
-0.2857142857142856
 31
0.0
  0
LINE
  5
10E
330
F4
100
AcDbEntity
  8
0
 62
     0
100
AcDbLine
 10
-0.9999999999999998
 20
-0.2857142857142856
 30
0.0
 11
0.0
 21
0.0
 31
0.0
  0
LINE
  5
10F
330
F4
100
AcDbEntity
  8
0
 62
     0
100
AcDbLine
 10
0.0
 20
0.0
 30
0.0
 11
-0.9999999999999998
 21
0.2857142857142856
 31
0.0
  0
LINE
  5
110
330
F4
100
AcDbEntity
  8
0
 62
     0
100
AcDbLine
 10
-0.9999999999999998
 20
0.2857142857142856
 30
0.0
 11
-0.65
 21
0.0
 31
0.0
  0
ENDBLK
  5
F6
330
F4
100
AcDbEntity
  8
0
100
AcDbBlockEnd
  0
BLOCK
  5
11E
330
119
100
AcDbEntity
  8
0
100
AcDbBlockBegin
  2
_Closed
 70
     0
 10
0.0
 20
0.0
 30
0.0
  3
_Closed
  1

  0
LINE
  5
11A
330
119
100
AcDbEntity
  8
0
  6
ByBlock
 62
     0
370
    -2
100
AcDbLine
 10
-1.0
 20
0.1666666666666666
 30
0.0
 11
0.0
 21
0.0
 31
0.0
  0
LINE
  5
11B
330
119
100
AcDbEntity
  8
0
  6
ByBlock
 62
     0
370
    -2
100
AcDbLine
 10
0.0
 20
0.0
 30
0.0
 11
-1.0
 21
-0.1666666666666666
 31
0.0
  0
LINE
  5
11C
330
119
100
AcDbEntity
  8
0
  6
ByBlock
 62
     0
370
    -2
100
AcDbLine
 10
-1.0
 20
0.1666666666666666
 30
0.0
 11
-1.0
 21
-0.1666666666666666
 31
0.0
  0
LINE
  5
11D
330
119
100
AcDbEntity
  8
0
  6
ByBlock
 62
     0
370
    -2
100
AcDbLine
 10
0.0
 20
0.0
 30
0.0
 11
-1.0
 21
0.0
 31
0.0
  0
ENDBLK
  5
11F
330
119
100
AcDbEntity
  8
0
100
AcDbBlockEnd
  0
BLOCK
  5
121
330
120
100
AcDbEntity
  8
0
100
AcDbBlockBegin
  2
DatumFilled45
 70
     0
 10
0.0
 20
0.0
 30
0.0
  3
DatumFilled45
  1

  0
POLYLINE
  5
123
330
120
100
AcDbEntity
  8
0
 62
     0
100
AcDb2dPolyline
 66
     1
 10
0.0
 20
0.0
 30
0.0
 70
   128
  0
VERTEX
  5
124
330
123
100
AcDbEntity
  8
0
 62
     0
100
AcDbVertex
100
AcDb2dVertex
 10
0.0
 20
0.9999999999999998
 30
0.0
  0
VERTEX
  5
125
330
123
100
AcDbEntity
  8
0
 62
     0
100
AcDbVertex
100
AcDb2dVertex
 10
0.0
 20
-0.9999999999999998
 30
0.0
  0
VERTEX
  5
127
330
123
100
AcDbEntity
  8
0
 62
     0
100
AcDbVertex
100
AcDb2dVertex
 10
-0.9999999999999998
 20
0.0
 30
0.0
  0
VERTEX
  5
128
330
123
100
AcDbEntity
  8
0
 62
     0
100
AcDbVertex
100
AcDb2dVertex
 10
0.0
 20
0.9999999999999998
 30
0.0
  0
SEQEND
  5
126
330
123
100
AcDbEntity
  8
0
 62
     0
  0
SOLID
  5
129
330
120
100
AcDbEntity
  8
0
 62
     0
100
AcDbTrace
 10
0.0
 20
0.9999999999999998
 30
0.0
 11
0.0
 21
-0.9999999999999998
 31
0.0
 12
-0.9999999999999998
 22
0.0
 32
0.0
 13
0.0
 23
0.9999999999999998
 33
0.0
  0
ENDBLK
  5
122
330
120
100
AcDbEntity
  8
0
100
AcDbBlockEnd
  0
BLOCK
  5
12C
330
12B
100
AcDbEntity
  8
0
100
AcDbBlockBegin
  2
Filled-1
 70
     0
 10
0.0
 20
0.0
 30
0.0
  3
Filled-1
  1

  0
LINE
  5
12E
330
12B
100
AcDbEntity
  8
0
 62
     0
100
AcDbLine
 10
-0.9999999999999998
 20
0.0
 30
0.0
 11
0.0
 21
0.0
 31
0.0
  0
POLYLINE
  5
12F
330
12B
100
AcDbEntity
  8
0
 62
     0
100
AcDb2dPolyline
 66
     1
 10
0.0
 20
0.0
 30
0.0
 70
   128
  0
VERTEX
  5
130
330
12F
100
AcDbEntity
  8
0
 62
     0
100
AcDbVertex
100
AcDb2dVertex
 10
-0.9999999999999998
 20
-0.0994897959183674
 30
0.0
  0
VERTEX
  5
131
330
12F
100
AcDbEntity
  8
0
 62
     0
100
AcDbVertex
100
AcDb2dVertex
 10
0.0
 20
0.0
 30
0.0
  0
VERTEX
  5
133
330
12F
100
AcDbEntity
  8
0
 62
     0
100
AcDbVertex
100
AcDb2dVertex
 10
-0.9999999999999998
 20
0.0994897959183674
 30
0.0
  0
VERTEX
  5
134
330
12F
100
AcDbEntity
  8
0
 62
     0
100
AcDbVertex
100
AcDb2dVertex
 10
-0.9999999999999998
 20
-0.0994897959183674
 30
0.0
  0
SEQEND
  5
132
330
12F
100
AcDbEntity
  8
0
 62
     0
  0
SOLID
  5
135
330
12B
100
AcDbEntity
  8
0
 62
     0
100
AcDbTrace
 10
-0.9999999999999998
 20
-0.0994897959183674
 30
0.0
 11
0.0
 21
0.0
 31
0.0
 12
-0.9999999999999998
 22
0.0994897959183674
 32
0.0
 13
-0.9999999999999998
 23
-0.0994897959183674
 33
0.0
  0
LINE
  5
136
330
12B
100
AcDbEntity
  8
0
 62
     0
100
AcDbLine
 10
-0.9999999999999998
 20
-0.0994897959183674
 30
0.0
 11
0.0
 21
0.0
 31
0.0
  0
LINE
  5
137
330
12B
100
AcDbEntity
  8
0
 62
     0
100
AcDbLine
 10
0.0
 20
0.0
 30
0.0
 11
-0.9999999999999998
 21
0.0994897959183674
 31
0.0
  0
LINE
  5
138
330
12B
100
AcDbEntity
  8
0
 62
     0
100
AcDbLine
 10
-0.9999999999999998
 20
0.0994897959183674
 30
0.0
 11
-0.9999999999999998
 21
-0.0994897959183674
 31
0.0
  0
ENDBLK
  5
12D
330
12B
100
AcDbEntity
  8
0
100
AcDbBlockEnd
  0
BLOCK
  5
13B
330
13A
100
AcDbEntity
  8
0
100
AcDbBlockBegin
  2
iges File
 70
     0
 10
0.0
 20
0.0
 30
0.0
  3
iges File
  1

  0
MTEXT
  5
13D
330
13A
100
AcDbEntity
  8
Symbol (ANSI)
100
AcDbMText
 10
-1.455413262675127
 20
0.0797406821621685
 30
0.0
 40
0.1200000014830762
 41
3.251731265633445
 71
     1
 72
     1
  1
\fTahoma|b1|i0;\H0.1200;MADE FROM IGES FILE: 
  7
Note Text (ANSI)
 73
     1
 44
1.0
1001
ACAD
1000
MTEXTBEGIN
1070
    73
1070
     1
1070
    44
1040
1.0
1070
    74
1070
     0
1000
MTEXTEND
  0
ENDBLK
  5
13C
330
13A
100
AcDbEntity
  8
0
100
AcDbBlockEnd
  0
BLOCK
  5
140
330
13F
100
AcDbEntity
  8
0
100
AcDbBlockBegin
  2
Borders Default Border
 70
     0
 10
0.0
 20
0.0
 30
0.0
  3
Borders Default Border
  1

  0
POLYLINE
  5
142
330
13F
100
AcDbEntity
  8
Border (ANSI)
100
AcDb2dPolyline
 66
     1
 10
0.0
 20
0.0
 30
0.0
 70
   128
  0
VERTEX
  5
143
330
142
100
AcDbEntity
  8
Border (ANSI)
100
AcDbVertex
100
AcDb2dVertex
 10
0.380000002740875
 20
0.380000002740875
 30
0.0
  0
VERTEX
  5
144
330
142
100
AcDbEntity
  8
Border (ANSI)
100
AcDbVertex
100
AcDb2dVertex
 10
0.380000002740875
 20
8.119999893068328
 30
0.0
  0
VERTEX
  5
146
330
142
100
AcDbEntity
  8
Border (ANSI)
100
AcDbVertex
100
AcDb2dVertex
 10
10.62000004325326
 20
8.119999893068328
 30
0.0
  0
VERTEX
  5
147
330
142
100
AcDbEntity
  8
Border (ANSI)
100
AcDbVertex
100
AcDb2dVertex
 10
10.62000004325326
 20
0.380000002740875
 30
0.0
  0
VERTEX
  5
148
330
142
100
AcDbEntity
  8
Border (ANSI)
100
AcDbVertex
100
AcDb2dVertex
 10
0.380000002740875
 20
0.380000002740875
 30
0.0
  0
SEQEND
  5
145
330
142
100
AcDbEntity
  8
Border (ANSI)
  0
POLYLINE
  5
149
330
13F
100
AcDbEntity
  8
Border (ANSI)
100
AcDb2dPolyline
 66
     1
 10
0.0
 20
0.0
 30
0.0
 70
   128
  0
VERTEX
  5
14A
330
149
100
AcDbEntity
  8
Border (ANSI)
100
AcDbVertex
100
AcDb2dVertex
 10
5.500000105129451
 20
0.1299999947623005
 30
0.0
  0
VERTEX
  5
14B
330
149
100
AcDbEntity
  8
Border (ANSI)
100
AcDbVertex
100
AcDb2dVertex
 10
5.500000105129451
 20
0.380000002740875
 30
0.0
  0
VERTEX
  5
14D
330
149
100
AcDbEntity
  8
Border (ANSI)
100
AcDbVertex
100
AcDb2dVertex
 10
5.413397466103861
 20
0.2300000096869281
 30
0.0
  0
VERTEX
  5
14E
330
149
100
AcDbEntity
  8
Border (ANSI)
100
AcDbVertex
100
AcDb2dVertex
 10
5.586602368692712
 20
0.2300000096869281
 30
0.0
  0
VERTEX
  5
14F
330
149
100
AcDbEntity
  8
Border (ANSI)
100
AcDbVertex
100
AcDb2dVertex
 10
5.500000105129451
 20
0.380000002740875
 30
0.0
  0
SEQEND
  5
14C
330
149
100
AcDbEntity
  8
Border (ANSI)
  0
POLYLINE
  5
150
330
13F
100
AcDbEntity
  8
Border (ANSI)
100
AcDb2dPolyline
 66
     1
 10
0.0
 20
0.0
 30
0.0
 70
   128
  0
VERTEX
  5
151
330
150
100
AcDbEntity
  8
Border (ANSI)
100
AcDbVertex
100
AcDb2dVertex
 10
5.500000105129451
 20
8.369999983179287
 30
0.0
  0
VERTEX
  5
152
330
150
100
AcDbEntity
  8
Border (ANSI)
100
AcDbVertex
100
AcDb2dVertex
 10
5.500000105129451
 20
8.119999893068328
 30
0.0
  0
VERTEX
  5
154
330
150
100
AcDbEntity
  8
Border (ANSI)
100
AcDbVertex
100
AcDb2dVertex
 10
5.413397466103861
 20
8.270000097319835
 30
0.0
  0
VERTEX
  5
155
330
150
100
AcDbEntity
  8
Border (ANSI)
100
AcDbVertex
100
AcDb2dVertex
 10
5.586602368692712
 20
8.270000097319835
 30
0.0
  0
VERTEX
  5
156
330
150
100
AcDbEntity
  8
Border (ANSI)
100
AcDbVertex
100
AcDb2dVertex
 10
5.500000105129451
 20
8.119999893068328
 30
0.0
  0
SEQEND
  5
153
330
150
100
AcDbEntity
  8
Border (ANSI)
  0
POLYLINE
  5
157
330
13F
100
AcDbEntity
  8
Border (ANSI)
100
AcDb2dPolyline
 66
     1
 10
0.0
 20
0.0
 30
0.0
 70
   128
  0
VERTEX
  5
158
330
157
100
AcDbEntity
  8
Border (ANSI)
100
AcDbVertex
100
AcDb2dVertex
 10
0.1299999947623005
 20
4.250000030036986
 30
0.0
  0
VERTEX
  5
159
330
157
100
AcDbEntity
  8
Border (ANSI)
100
AcDbVertex
100
AcDb2dVertex
 10
0.380000002740875
 20
4.250000030036986
 30
0.0
  0
VERTEX
  5
15B
330
157
100
AcDbEntity
  8
Border (ANSI)
100
AcDbVertex
100
AcDb2dVertex
 10
0.2300000096869281
 20
4.336602669062576
 30
0.0
  0
VERTEX
  5
15C
330
157
100
AcDbEntity
  8
Border (ANSI)
100
AcDbVertex
100
AcDb2dVertex
 10
0.2300000096869281
 20
4.163397391011395
 30
0.0
  0
VERTEX
  5
15D
330
157
100
AcDbEntity
  8
Border (ANSI)
100
AcDbVertex
100
AcDb2dVertex
 10
0.380000002740875
 20
4.250000030036986
 30
0.0
  0
SEQEND
  5
15A
330
157
100
AcDbEntity
  8
Border (ANSI)
  0
POLYLINE
  5
15E
330
13F
100
AcDbEntity
  8
Border (ANSI)
100
AcDb2dPolyline
 66
     1
 10
0.0
 20
0.0
 30
0.0
 70
   128
  0
VERTEX
  5
15F
330
15E
100
AcDbEntity
  8
Border (ANSI)
100
AcDbVertex
100
AcDb2dVertex
 10
10.87000013336422
 20
4.250000030036986
 30
0.0
  0
VERTEX
  5
160
330
15E
100
AcDbEntity
  8
Border (ANSI)
100
AcDbVertex
100
AcDb2dVertex
 10
10.62000004325326
 20
4.250000030036986
 30
0.0
  0
VERTEX
  5
162
330
15E
100
AcDbEntity
  8
Border (ANSI)
100
AcDbVertex
100
AcDb2dVertex
 10
10.77000024750476
 20
4.336602669062576
 30
0.0
  0
VERTEX
  5
163
330
15E
100
AcDbEntity
  8
Border (ANSI)
100
AcDbVertex
100
AcDb2dVertex
 10
10.77000024750476
 20
4.163397391011395
 30
0.0
  0
VERTEX
  5
164
330
15E
100
AcDbEntity
  8
Border (ANSI)
100
AcDbVertex
100
AcDb2dVertex
 10
10.62000004325326
 20
4.250000030036986
 30
0.0
  0
SEQEND
  5
161
330
15E
100
AcDbEntity
  8
Border (ANSI)
  0
MTEXT
  5
165
330
13F
100
AcDbEntity
  8
Border (ANSI)
100
AcDbMText
 10
8.227439780212364
 20
8.16
 30
0.0
 40
0.1000000031914298
 41
0.0
 71
     7
 72
     1
  1
1
  7
Note Text (ANSI)
 73
     1
 44
1.0
1001
ACAD
1000
MTEXTBEGIN
1070
    73
1070
     1
1070
    44
1040
1.0
1070
    74
1070
     0
1000
MTEXTEND
  0
MTEXT
  5
166
330
13F
100
AcDbEntity
  8
Border (ANSI)
100
AcDbMText
 10
8.227439780212364
 20
0.2399999968085702
 30
0.0
 40
0.1000000031914298
 41
0.0
 71
     7
 72
     1
  1
1
  7
Note Text (ANSI)
 73
     1
 44
1.0
1001
ACAD
1000
MTEXTBEGIN
1070
    73
1070
     1
1070
    44
1040
1.0
1070
    74
1070
     0
1000
MTEXTEND
  0
MTEXT
  5
167
330
13F
100
AcDbEntity
  8
Border (ANSI)
100
AcDbMText
 10
2.719679760099059
 20
8.16
 30
0.0
 40
0.1000000031914298
 41
0.0
 71
     7
 72
     1
  1
2
  7
Note Text (ANSI)
 73
     1
 44
1.0
1001
ACAD
1000
MTEXTBEGIN
1070
    73
1070
     1
1070
    44
1040
1.0
1070
    74
1070
     0
1000
MTEXTEND
  0
MTEXT
  5
168
330
13F
100
AcDbEntity
  8
Border (ANSI)
100
AcDbMText
 10
2.719679760099059
 20
0.2399999968085702
 30
0.0
 40
0.1000000031914298
 41
0.0
 71
     7
 72
     1
  1
2
  7
Note Text (ANSI)
 73
     1
 44
1.0
1001
ACAD
1000
MTEXTBEGIN
1070
    73
1070
     1
1070
    44
1040
1.0
1070
    74
1070
     0
1000
MTEXTEND
  0
MTEXT
  5
169
330
13F
100
AcDbEntity
  8
Border (ANSI)
100
AcDbMText
 10
0.2474637247347651
 20
2.074999998404285
 30
0.0
 40
0.1000000031914298
 41
0.0
 71
     7
 72
     1
  1
A
  7
Note Text (ANSI)
 73
     1
 44
1.0
1001
ACAD
1000
MTEXTBEGIN
1070
    73
1070
     1
1070
    44
1040
1.0
1070
    74
1070
     0
1000
MTEXTEND
  0
MTEXT
  5
16A
330
13F
100
AcDbEntity
  8
Border (ANSI)
100
AcDbMText
 10
10.66746372792619
 20
2.074999998404285
 30
0.0
 40
0.1000000031914298
 41
0.0
 71
     7
 72
     1
  1
A
  7
Note Text (ANSI)
 73
     1
 44
1.0
1001
ACAD
1000
MTEXTBEGIN
1070
    73
1070
     1
1070
    44
1040
1.0
1070
    74
1070
     0
1000
MTEXTEND
  0
MTEXT
  5
16B
330
13F
100
AcDbEntity
  8
Border (ANSI)
100
AcDbMText
 10
0.2594813851982712
 20
6.324999998404284
 30
0.0
 40
0.1000000031914298
 41
0.0
 71
     7
 72
     1
  1
B
  7
Note Text (ANSI)
 73
     1
 44
1.0
1001
ACAD
1000
MTEXTBEGIN
1070
    73
1070
     1
1070
    44
1040
1.0
1070
    74
1070
     0
1000
MTEXTEND
  0
MTEXT
  5
16C
330
13F
100
AcDbEntity
  8
Border (ANSI)
100
AcDbMText
 10
10.6794813883897
 20
6.324999998404284
 30
0.0
 40
0.1000000031914298
 41
0.0
 71
     7
 72
     1
  1
B
  7
Note Text (ANSI)
 73
     1
 44
1.0
1001
ACAD
1000
MTEXTBEGIN
1070
    73
1070
     1
1070
    44
1040
1.0
1070
    74
1070
     0
1000
MTEXTEND
  0
ENDBLK
  5
141
330
13F
100
AcDbEntity
  8
0
100
AcDbBlockEnd
  0
BLOCK
  5
16F
330
16E
100
AcDbEntity
  8
0
100
AcDbBlockBegin
  2
Title Blocks Wagner Component Title Block
 70
     2
 10
0.0
 20
0.0
 30
0.0
  3
Title Blocks Wagner Component Title Block
  1

  0
IMAGE
  5
171
330
16E
100
AcDbEntity
  8
0
 92
      140
310
8C0000000100000084000000060000000500000061241EA95F5A0D40D0F94724E478FC3F0000000000000000FC231EA95F5A0D40FC58A8E53AB601400000000000000000BD567E5E67581240FC58A8E53AB601400000000000000000F0567E5E67581240D0F94724E478FC3F000000000000000061241EA95F5A0D40D0F947
310
24E478FC3F0000000000000000
100
AcDbRasterImage
 90
        0
 10
3.669127770645488
 20
1.779514447901977
 30
0.0
 11
0.0037133767256516
 21
0.0
 31
0.0
 12
-0.0000000000000004
 22
0.0037133767256516
 32
0.0
 13
247.0
 23
117.0
340
173
 70
     7
280
     0
281
    50
282
    50
283
     0
360
174
 71
     1
 91
        2
 14
-0.5
 24
-0.5
 14
246.5
 24
116.5
  0
LINE
  5
175
330
16E
100
AcDbEntity
  8
Title (ANSI)
100
AcDbLine
 10
2.499999999999999
 20
1.45
 30
0.0
 11
2.500000000000003
 21
2.649999999999996
 31
0.0
  0
LINE
  5
176
330
16E
100
AcDbEntity
  8
Title (ANSI)
100
AcDbLine
 10
3.5
 20
1.75
 30
0.0
 11
7.099999999999997
 21
1.750000000000001
 31
0.0
  0
LINE
  5
177
330
16E
100
AcDbEntity
  8
Title (ANSI)
100
AcDbLine
 10
2.5
 20
1.749999999999999
 30
0.0
 11
2.625
 21
1.749999999999999
 31
0.0
  0
LINE
  5
178
330
16E
100
AcDbEntity
  8
Title (ANSI)
100
AcDbLine
 10
2.625
 20
1.749999999999999
 30
0.0
 11
3.5
 21
1.75
 31
0.0
  0
LINE
  5
179
330
16E
100
AcDbEntity
  8
Title (ANSI)
100
AcDbLine
 10
7.099999999999998
 20
1.45
 30
0.0
 11
7.099999999999997
 21
2.650000000000001
 31
0.0
  0
LINE
  5
17A
330
16E
100
AcDbEntity
  8
Title (ANSI)
100
AcDbLine
 10
2.499999999999999
 20
1.999999999999999
 30
0.0
 11
2.625
 21
1.999999999999999
 31
0.0
  0
LINE
  5
17B
330
16E
100
AcDbEntity
  8
Title (ANSI)
100
AcDbLine
 10
2.625
 20
1.999999999999999
 30
0.0
 11
3.5
 21
2.0
 31
0.0
  0
LINE
  5
17C
330
16E
100
AcDbEntity
  8
Title (ANSI)
100
AcDbLine
 10
7.099999999999997
 20
2.250000000000001
 30
0.0
 11
2.519765682192538
 21
2.25
 31
0.0
  0
LINE
  5
17D
330
16E
100
AcDbEntity
  8
Title (ANSI)
100
AcDbLine
 10
2.519765682192538
 20
2.25
 30
0.0
 11
2.499999999999999
 21
2.249999999999999
 31
0.0
  0
LINE
  5
17E
330
16E
100
AcDbEntity
  8
Title (ANSI)
100
AcDbLine
 10
7.099999999999997
 20
2.450000000000001
 30
0.0
 11
2.554843788128357
 21
2.449999999999999
 31
0.0
  0
LINE
  5
17F
330
16E
100
AcDbEntity
  8
Title (ANSI)
100
AcDbLine
 10
2.554843788128357
 20
2.449999999999999
 30
0.0
 11
2.500000000000002
 21
2.449999999999999
 31
0.0
  0
LINE
  5
180
330
16E
100
AcDbEntity
  8
Title (ANSI)
100
AcDbLine
 10
7.099999999999997
 20
2.650000000000001
 30
0.0
 11
2.500000000000003
 21
2.649999999999996
 31
0.0
  0
LINE
  5
181
330
16E
100
AcDbEntity
  8
Title (ANSI)
100
AcDbLine
 10
2.625
 20
2.649999999999999
 30
0.0
 11
2.500000000000003
 21
2.649999999999996
 31
0.0
  0
LINE
  5
182
330
16E
100
AcDbEntity
  8
Title (ANSI)
100
AcDbLine
 10
3.5
 20
2.249999999999999
 30
0.0
 11
3.5
 21
1.75
 31
0.0
  0
LINE
  5
183
330
16E
100
AcDbEntity
  8
Title (ANSI)
100
AcDbLine
 10
4.799999999999999
 20
1.75
 30
0.0
 11
4.799999999999999
 21
1.45
 31
0.0
  0
LINE
  5
184
330
16E
100
AcDbEntity
  8
Title (ANSI)
100
AcDbLine
 10
6.799999999999998
 20
1.750000000000001
 30
0.0
 11
6.799999999999998
 21
1.45
 31
0.0
  0
LINE
  5
185
330
16E
100
AcDbEntity
  8
Title (ANSI)
100
AcDbLine
 10
7.099999999999998
 20
1.45
 30
0.0
 11
2.499999999999999
 21
1.45
 31
0.0
  0
LINE
  5
186
330
16E
100
AcDbEntity
  8
Title (ANSI)
100
AcDbLine
 10
3.8
 20
2.45
 30
0.0
 11
3.8
 21
2.249999999999999
 31
0.0
  0
LINE
  5
187
330
16E
100
AcDbEntity
  8
Title (ANSI)
100
AcDbLine
 10
2.500000000000003
 20
2.649999999999996
 30
0.0
 11
0.9999999999999998
 21
2.649999999999999
 31
0.0
  0
LINE
  5
188
330
16E
100
AcDbEntity
  8
Title (ANSI)
100
AcDbLine
 10
0.9999999999999998
 20
2.649999999999999
 30
0.0
 11
0.9999999999999998
 21
1.450000000000003
 31
0.0
  0
LINE
  5
189
330
16E
100
AcDbEntity
  8
Title (ANSI)
100
AcDbLine
 10
0.9999999999999998
 20
1.450000000000003
 30
0.0
 11
2.500000000000003
 21
1.45
 31
0.0
  0
LINE
  5
18A
330
16E
100
AcDbEntity
  8
Title (ANSI)
100
AcDbLine
 10
2.500000000000003
 20
1.45
 30
0.0
 11
2.500000000000003
 21
2.649999999999996
 31
0.0
  0
LINE
  5
18B
330
16E
100
AcDbEntity
  8
Title (ANSI)
100
AcDbLine
 10
2.499999999999999
 20
2.249999999999999
 30
0.0
 11
0.9999999999999998
 21
2.249999999999998
 31
0.0
  0
LINE
  5
18C
330
16E
100
AcDbEntity
  8
Title (ANSI)
100
AcDbLine
 10
0.9999999999999998
 20
2.250000000000001
 30
0.0
 11
0.9999999999999998
 21
1.450000000000003
 31
0.0
  0
LINE
  5
18D
330
16E
100
AcDbEntity
  8
Title (ANSI)
100
AcDbLine
 10
0.9999999999999998
 20
1.849999999999998
 30
0.0
 11
2.5
 21
1.849999999999999
 31
0.0
  0
LINE
  5
18E
330
16E
100
AcDbEntity
  8
Title (ANSI)
100
AcDbLine
 10
4.049999999999998
 20
1.75
 30
0.0
 11
4.049999999999998
 21
1.450000000000001
 31
0.0
  0
LINE
  5
18F
330
16E
100
AcDbEntity
  8
Title (ANSI)
100
AcDbLine
 10
1.75
 20
2.649999999999999
 30
0.0
 11
1.75
 21
1.450000000000003
 31
0.0
  0
LINE
  5
190
330
16E
100
AcDbEntity
  8
Title (ANSI)
100
AcDbLine
 10
0.9999999999999998
 20
1.450000000000003
 30
0.0
 11
-0.6400000000000005
 21
1.450000000000002
 31
0.0
  0
LINE
  5
191
330
16E
100
AcDbEntity
  8
Title (ANSI)
100
AcDbLine
 10
-0.6400000000000003
 20
1.450000000000002
 30
0.0
 11
-0.6400000000000006
 21
2.649999999999998
 31
0.0
  0
LINE
  5
192
330
16E
100
AcDbEntity
  8
Title (ANSI)
100
AcDbLine
 10
-0.6400000000000006
 20
2.649999999999998
 30
0.0
 11
0.9999999999999998
 21
2.649999999999998
 31
0.0
  0
LINE
  5
193
330
16E
100
AcDbEntity
  8
Title (ANSI)
100
AcDbLine
 10
0.9999999999999998
 20
2.649999999999998
 30
0.0
 11
0.9999999999999998
 21
1.450000000000003
 31
0.0
  0
LINE
  5
194
330
16E
100
AcDbEntity
  8
Title (ANSI)
100
AcDbLine
 10
-0.6400000000000006
 20
2.489999999999998
 30
0.0
 11
0.9999999999999998
 21
2.489999999999999
 31
0.0
  0
TEXT
  5
195
330
16E
100
AcDbEntity
  8
0
100
AcDbText
 10
6.734536812847075
 20
1.891411418968007
 30
0.0
 40
0.0793498214774244
  1
C
  7
Garamond_62
100
AcDbText
  0
TEXT
  5
198
330
16E
100
AcDbEntity
  8
0
100
AcDbText
 10
6.124809865004042
 20
1.888356226077533
 30
0.0
 40
0.0793498214774244
  1
J. G. B
  7
Garamond_62
100
AcDbText
  0
TEXT
  5
199
330
16E
100
AcDbEntity
  8
0
100
AcDbText
 10
5.649786171621115
 20
1.889924929544915
 30
0.0
 40
0.0793498214774244
  1
I
  7
Garamond_62
100
AcDbText
  0
TEXT
  5
19A
330
16E
100
AcDbEntity
  8
0
100
AcDbText
 10
4.841280683311744
 20
1.891479512755033
 30
0.0
 40
0.0793498214774244
  1
R & B W
  7
Garamond_62
100
AcDbText
  0
TEXT
  5
19B
330
16E
100
AcDbEntity
  8
0
100
AcDbText
 10
6.016492267194002
 20
2.032334058900866
 30
0.0
 40
0.1279674763754597
  1
C
  7
Garamond_65
100
AcDbText
  0
TEXT
  5
19C
330
16E
100
AcDbEntity
  8
0
100
AcDbText
 10
5.278935206791981
 20
2.032614976937204
 30
0.0
 40
0.1279674763754597
  1
W
  7
Garamond_65
100
AcDbText
  0
TEXT
  5
19D
330
16E
100
AcDbEntity
  8
0
100
AcDbText
 10
4.820067423789335
 20
2.029715365158473
 30
0.0
 40
0.1279674763754597
  1
T
  7
Garamond_65
100
AcDbText
  0
TEXT
  5
19E
330
16E
100
AcDbEntity
  8
0
100
AcDbText
 10
5.272633487633111
 20
1.889698454973341
 30
0.0
 40
0.0595123631747689
  1
AGNER, 
  7
Garamond_68
100
AcDbText
  0
TEXT
  5
19F
330
16E
100
AcDbEntity
  8
0
100
AcDbText
 10
6.447633325142468
 20
1.890097172516276
 30
0.0
 40
0.0595123631747689
  1
RAUN 
  7
Garamond_68
100
AcDbText
  0
TEXT
  5
1A0
330
16E
100
AcDbEntity
  8
0
100
AcDbText
 10
5.701954203754006
 20
1.88869576108439
 30
0.0
 40
0.0595123631747689
  1
NC. AND
  7
Garamond_68
100
AcDbText
  0
TEXT
  5
1A1
330
16E
100
AcDbEntity
  8
0
100
AcDbText
 10
6.814413197435893
 20
1.890538053588574
 30
0.0
 40
0.0595123631747689
  1
O.
  7
Garamond_68
100
AcDbText
  0
TEXT
  5
1A2
330
16E
100
AcDbEntity
  8
0
100
AcDbText
 10
5.441787308846233
 20
2.030017737613934
 30
0.0
 40
0.0959756102148942
  1
AGNER
  7
Garamond_71
100
AcDbText
  0
TEXT
  5
1A3
330
16E
100
AcDbEntity
  8
0
100
AcDbText
 10
4.95287835941492
 20
2.030014549531722
 30
0.0
 40
0.0959756102148942
  1
HE
  7
Garamond_71
100
AcDbText
  0
TEXT
  5
1A4
330
16E
100
AcDbEntity
  8
0
100
AcDbText
 10
6.147023298320139
 20
2.030773538032057
 30
0.0
 40
0.0959756102148942
  1
OMPANIES
  7
Garamond_71
100
AcDbText
  0
MTEXT
  5
1A5
330
16E
100
AcDbEntity
  8
Title (ANSI)
100
AcDbMText
 10
2.698410934119162
 20
1.957410820544628
 30
0.0
 40
0.0500000015957149
 41
0.3673116755775605
 71
     5
 72
     1
  1
\fTahoma|b0|i0;\H0.0500;DRAWN BY:
  7
Note Text (ANSI)
 73
     1
 44
1.0
1001
ACAD
1000
MTEXTBEGIN
1070
    73
1070
     1
1070
    44
1040
1.0
1070
    74
1070
     0
1000
MTEXTEND
  0
MTEXT
  5
1A6
330
16E
100
AcDbEntity
  8
Title (ANSI)
100
AcDbMText
 10
2.610477079879989
 20
2.209022520128815
 30
0.0
 40
0.0500000015957149
 41
0.0
 71
     5
 72
     1
  1
\fTahoma|b0|i0;\H0.0500;DATE:
  7
Note Text (ANSI)
 73
     1
 44
1.0
1001
ACAD
1000
MTEXTBEGIN
1070
    73
1070
     1
1070
    44
1040
1.0
1070
    74
1070
     0
1000
MTEXTEND
  0
MTEXT
  5
1A7
330
16E
100
AcDbEntity
  8
Title (ANSI)
100
AcDbMText
 10
2.68253879891757
 20
2.406535864953878
 30
0.0
 40
0.0500000015957149
 41
0.3410453871479184
 71
     5
 72
     1
  1
\fTahoma|b0|i0;\H0.0500;MATERIAL:
  7
Note Text (ANSI)
 73
     1
 44
1.0
1001
ACAD
1000
MTEXTBEGIN
1070
    73
1070
     1
1070
    44
1040
1.0
1070
    74
1070
     0
1000
MTEXTEND
  0
MTEXT
  5
1A8
330
16E
100
AcDbEntity
  8
Title (ANSI)
100
AcDbMText
 10
2.740297317540888
 20
2.603999044446456
 30
0.0
 40
0.0500000015957149
 41
0.4631471227659882
 71
     5
 72
     1
  1
\fTahoma|b0|i0;\H0.0500;DESCRIPTION:
  7
Note Text (ANSI)
 73
     1
 44
1.0
1001
ACAD
1000
MTEXTBEGIN
1070
    73
1070
     1
1070
    44
1040
1.0
1070
    74
1070
     0
1000
MTEXTEND
  0
MTEXT
  5
1A9
330
16E
100
AcDbEntity
  8
Title (ANSI)
100
AcDbMText
 10
1.880777106842956
 20
2.611282314362456
 30
0.0
 40
0.0500000015957149
 41
0.2650737774191694
 71
     5
 72
     1
  1
\fTahoma|b0|i0;\H0.0500;FINISH:
  7
Note Text (ANSI)
 73
     1
 44
1.0
1001
ACAD
1000
MTEXTBEGIN
1070
    73
1070
     1
1070
    44
1040
1.0
1070
    74
1070
     0
1000
MTEXTEND
  0
MTEXT
  5
1AA
330
16E
100
AcDbEntity
  8
Title (ANSI)
100
AcDbMText
 10
1.851433245949744
 20
1.807038151149591
 30
0.0
 40
0.0500000015957149
 41
0.2867398069469824
 71
     5
 72
     1
  1
\fTahoma|b0|i0;\H0.0500;SIZE:
  7
Note Text (ANSI)
 73
     1
 44
1.0
1001
ACAD
1000
MTEXTBEGIN
1070
    73
1070
     1
1070
    44
1040
1.0
1070
    74
1070
     0
1000
MTEXTEND
  0
MTEXT
  5
1AB
330
16E
100
AcDbEntity
  8
Title (ANSI)
100
AcDbMText
 10
1.903615150200934
 20
2.207887072817011
 30
0.0
 40
0.0500000015957149
 41
0.2830227059642161
 71
     5
 72
     1
  1
\fTahoma|b0|i0;\H0.0500;WEIGHT:
  7
Note Text (ANSI)
 73
     1
 44
1.0
1001
ACAD
1000
MTEXTBEGIN
1070
    73
1070
     1
1070
    44
1040
1.0
1070
    74
1070
     0
1000
MTEXTEND
  0
MTEXT
  5
1AC
330
16E
100
AcDbEntity
  8
Title (ANSI)
100
AcDbMText
 10
5.120979320222905
 20
1.702017484790298
 30
0.0
 40
0.0500000015957149
 41
0.6215559215996209
 71
     5
 72
     1
  1
\fTahoma|b0|i0;\H0.0500;DRAWING NUMBER:
  7
Note Text (ANSI)
 73
     1
 44
1.0
1001
ACAD
1000
MTEXTBEGIN
1070
    73
1070
     1
1070
    44
1040
1.0
1070
    74
1070
     0
1000
MTEXTEND
  0
MTEXT
  5
1AD
330
16E
100
AcDbEntity
  8
Title (ANSI)
100
AcDbMText
 10
6.896483087193517
 20
1.69979427800106
 30
0.0
 40
0.0500000015957149
 41
0.2048673523695404
 71
     5
 72
     1
  1
\fTahoma|b0|i0;\H0.0500;REV:
  7
Note Text (ANSI)
 73
     1
 44
1.0
1001
ACAD
1000
MTEXTBEGIN
1070
    73
1070
     1
1070
    44
1040
1.0
1070
    74
1070
     0
1000
MTEXTEND
  0
MTEXT
  5
1AE
330
16E
100
AcDbEntity
  8
Title (ANSI)
100
AcDbMText
 10
4.097300250960961
 20
2.405438299815806
 30
0.0
 40
0.0500000015957149
 41
0.5354607019273398
 71
     5
 72
     1
  1
\fTahoma|b0|i0;\H0.0500;MATERIAL DESC:
  7
Note Text (ANSI)
 73
     1
 44
1.0
1001
ACAD
1000
MTEXTBEGIN
1070
    73
1070
     1
1070
    44
1040
1.0
1070
    74
1070
     0
1000
MTEXTEND
  0
MTEXT
  5
1AF
330
16E
100
AcDbEntity
  8
Title (ANSI)
100
AcDbMText
 10
1.256170336012057
 20
1.804412071012452
 30
0.0
 40
0.0500000015957149
 41
0.5084986310753783
 71
     5
 72
     1
  1
\fTahoma|b0|i0;\H0.0500;TOOL NUMBER:
  7
Note Text (ANSI)
 73
     1
 44
1.0
1001
ACAD
1000
MTEXTBEGIN
1070
    73
1070
     1
1070
    44
1040
1.0
1070
    74
1070
     0
1000
MTEXTEND
  0
MTEXT
  5
1B0
330
16E
100
AcDbEntity
  8
Title (ANSI)
100
AcDbMText
 10
1.347006235303172
 20
2.210314971467419
 30
0.0
 40
0.0500000015957149
 41
0.6677876776597631
 71
     5
 72
     1
  1
\fTahoma|b0|i0;\H0.0500;DEVELOPED LENGTH:
  7
Note Text (ANSI)
 73
     1
 44
1.0
1001
ACAD
1000
MTEXTBEGIN
1070
    73
1070
     1
1070
    44
1040
1.0
1070
    74
1070
     0
1000
MTEXTEND
  0
MTEXT
  5
1B1
330
16E
100
AcDbEntity
  8
Title (ANSI)
100
AcDbMText
 10
1.220425917384947
 20
2.607295480739405
 30
0.0
 40
0.0500000015957149
 41
0.4401765881171156
 71
     5
 72
     1
  1
\fTahoma|b0|i0;\H0.0500;CUT LENGTH:
  7
Note Text (ANSI)
 73
     1
 44
1.0
1001
ACAD
1000
MTEXTBEGIN
1070
    73
1070
     1
1070
    44
1040
1.0
1070
    74
1070
     0
1000
MTEXTEND
  0
MTEXT
  5
1B2
330
16E
100
AcDbEntity
  8
Title (ANSI)
100
AcDbMText
 10
4.425887729043128
 20
1.5483965637072
 30
0.0
 40
0.1000000031914298
 41
0.7516815150691173
 71
     5
 72
     1
  1
1  OF 1 
  7
Note Text (ANSI)
 73
     2
 44
0.9878842830657958
1001
ACAD
1000
MTEXTBEGIN
1070
    73
1070
     2
1070
    44
1040
0.9878842830657958
1070
    74
1070
     0
1000
MTEXTEND
  0
MTEXT
  5
1B3
330
16E
100
AcDbEntity
  8
Title (ANSI)
100
AcDbMText
 10
4.175680598530943
 20
1.706010444093354
 30
0.0
 40
0.0500000015957149
 41
0.2494390018499434
 71
     5
 72
     1
  1
\fTahoma|b0|i0;\H0.0500;SHEET:
  7
Note Text (ANSI)
 73
     1
 44
1.0
1001
ACAD
1000
MTEXTBEGIN
1070
    73
1070
     1
1070
    44
1040
1.0
1070
    74
1070
     0
1000
MTEXTEND
  0
MTEXT
  5
1B4
330
16E
100
AcDbEntity
  8
Title (ANSI)
100
AcDbMText
 10
2.770839925975149
 20
1.692918901178556
 30
0.0
 40
0.0500000015957149
 41
0.5021303542083196
 71
     5
 72
     1
  1
\fTahoma|b0|i0;\H0.0500;ITEM NUMBER:
  7
Note Text (ANSI)
 73
     1
 44
1.0
1001
ACAD
1000
MTEXTBEGIN
1070
    73
1070
     1
1070
    44
1040
1.0
1070
    74
1070
     0
1000
MTEXTEND
  0
MTEXT
  5
1B5
330
16E
100
AcDbEntity
  8
Title (ANSI)
100
AcDbMText
 10
0.1809967247236477
 20
2.56834591271474
 30
0.0
 40
0.0899999981790077
 41
1.633006492794545
 71
     5
 72
     1
  1
\fTahoma|b1|i0;\H0.0900;TOLERANCE
  7
Note Text (ANSI)
 73
     1
 44
1.0
1001
ACAD
1000
MTEXTBEGIN
1070
    73
1070
     1
1070
    44
1040
1.0
1070
    74
1070
     0
1000
MTEXTEND
  0
MTEXT
  5
1B6
330
16E
100
AcDbEntity
  8
Title (ANSI)
100
AcDbMText
 10
-0.6067249237370022
 20
1.923514223374582
 30
0.0
 40
0.1000000031914298
 41
1.615610238296886
 71
     4
 72
     1
  3
\fTahoma|b0|i0;\H0.0700;FRACTION: \PX/XX...................= \fAIGDT|b0|i0;\H0.0700;`\fTahoma|b0|i0;\H0.0700;1/16" over 4ft.\PDECIMAL:\PX.XX...................= \fAIGDT|b0|i0;\H0.0700;`\fTahoma|b0|i0;\H0.0700;.030\PX.XXX.................= \fAIGDT|b0|
  1
i0;\H0.0700;`\fTahoma|b0|i0;\H0.0700;.010\P \PUNLESS OTHERWISE NOTED\P\fTahoma|b0|i0;\H0.1000; 
  7
Note Text (ANSI)
 73
     2
 44
0.7499999403953553
1001
ACAD
1000
MTEXTBEGIN
1070
    73
1070
     2
1070
    44
1040
0.7499999403953553
1070
    74
1070
     0
1000
MTEXTEND
  0
ATTDEF
  5
1B8
102
{ACAD_XDICTIONARY
360
8F2
102
}
330
16E
100
AcDbEntity
  8
Title (ANSI)
100
AcDbText
 10
2.844881542124665
 20
1.809871369968272
 30
0.0
 40
0.0799999990331845
  1
kturdo
  7
Text Style40
100
AcDbAttributeDefinition
  3
AUTHOR
  2
AUTHOR_001
 70
     0
  0
ATTDEF
  5
1BB
102
{ACAD_XDICTIONARY
360
8F5
102
}
330
16E
100
AcDbEntity
  8
Title (ANSI)
100
AcDbText
 10
3.010676391839878
 20
2.519846925057605
 30
0.0
 40
0.0799999990331845
  1
Flange, ST, Heavy, 1/4 in Thick, For 1-1/2 in Pipe (1.90 in Dia) 4 Oval Mount Holes
  7
Text Style40
100
AcDbAttributeDefinition
  3
DESCRIPTION
  2
DESCRIPTION_001
 70
     0
  0
ATTDEF
  5
1BC
102
{ACAD_XDICTIONARY
360
8F8
102
}
330
16E
100
AcDbEntity
  8
Title (ANSI)
100
AcDbText
 10
2.747576490825188
 20
2.060977526711396
 30
0.0
 40
0.0799999990331845
  1
2/14/2013
  7
Text Style40
100
AcDbAttributeDefinition
  3
CREATION DATE
  2
CREATION_DATE_001
 70
     0
  0
ATTDEF
  5
1BE
102
{ACAD_XDICTIONARY
360
8FB
102
}
330
16E
100
AcDbEntity
  8
Title (ANSI)
100
AcDbText
 10
2.105564253523533
 20
1.583299696356112
 30
0.0
 40
0.1249999981226883
  1
A
  7
Text Style39
100
AcDbAttributeDefinition
  3
Sheet Size
  2
Sheet_Size_001
 70
     0
  0
ATTDEF
  5
1BF
102
{ACAD_XDICTIONARY
360
8FE
102
}
330
16E
100
AcDbEntity
  8
Title (ANSI)
100
AcDbText
 10
1.77132469547259
 20
1.96024810415734
 30
0.0
 40
0.0799999990331845
  1
0.95 lbmass
  7
Text Style40
100
AcDbAttributeDefinition
  3
MASS\P2;
  2
MASS\P2;_001
 70
     0
  0
ATTDEF
  5
1C0
102
{ACAD_XDICTIONARY
360
901
102
}
330
16E
100
AcDbEntity
  8
Title (ANSI)
100
AcDbText
 10
5.618835200094061
 20
1.503369634451978
 30
0.0
 40
0.1249999981226883
  1
1623HD
  7
Text Style39
100
AcDbAttributeDefinition
  3
PART NUMBER
  2
PART_NUMBER_001
 70
     0
  0
ATTDEF
  5
1C1
102
{ACAD_XDICTIONARY
360
904
102
}
330
16E
100
AcDbEntity
  8
Title (ANSI)
100
AcDbText
 10
6.918518033175982
 20
1.498299576165202
 30
0.0
 40
0.1249999981226883
  1
-
  7
Text Style39
100
AcDbAttributeDefinition
  3
REVISION NUMBER
  2
REVISION_NUMBER_001
 70
     0
  0
ATTDEF
  5
1C2
102
{ACAD_XDICTIONARY
360
907
102
}
330
16E
100
AcDbEntity
  8
Title (ANSI)
100
AcDbText
 10
2.063443822775957
 20
2.364273669942259
 30
0.0
 40
0.0799999990331845
  1

  7
Text Style40
 72
     1
 11
2.063443822775957
 21
2.404273669458851
 31
0.0
100
AcDbAttributeDefinition
  3
Finish
  2
Finish
 70
     0
 74
     2
  0
ATTDEF
  5
1C3
102
{ACAD_XDICTIONARY
360
90A
102
}
330
16E
100
AcDbEntity
  8
Title (ANSI)
100
AcDbText
 10
3.031816871096202
 20
2.273046918861591
 30
0.0
 40
0.0799999990331845
  1
Steel
  7
Text Style40
100
AcDbAttributeDefinition
  3
MATERIAL
  2
MATERIAL_001
 70
     0
  0
ATTDEF
  5
1C4
102
{ACAD_XDICTIONARY
360
90D
102
}
330
16E
100
AcDbEntity
  8
Title (ANSI)
100
AcDbText
 10
4.774989243294823
 20
2.269079273472488
 30
0.0
 40
0.1000000031914298
  1
.25" Thick Coiled Steel
  7
Note Text (ANSI)
100
AcDbAttributeDefinition
  3
AUTHOR
  2
AUTHOR_001
 70
     0
  0
ATTDEF
  5
1C5
102
{ACAD_XDICTIONARY
360
910
102
}
330
16E
100
AcDbEntity
  8
Title (ANSI)
100
AcDbText
 10
1.376450789417299
 20
1.546069260261202
 30
0.0
 40
0.1000000031914298
  1

  7
Note Text (ANSI)
 72
     1
 11
1.376450789417299
 21
1.596069261856917
 31
0.0
100
AcDbAttributeDefinition
  3
ToolNumber
  2
ToolNumber
 70
     0
 74
     2
  0
ATTDEF
  5
1C6
102
{ACAD_XDICTIONARY
360
913
102
}
330
16E
100
AcDbEntity
  8
Title (ANSI)
100
AcDbText
 10
1.371719385710888
 20
1.952751883747431
 30
0.0
 40
0.1000000031914298
  1

  7
Note Text (ANSI)
 72
     1
 11
1.371719385710888
 21
2.002751885343146
 31
0.0
100
AcDbAttributeDefinition
  3
DevLength
  2
DevLength
 70
     0
 74
     2
  0
ATTDEF
  5
1C7
102
{ACAD_XDICTIONARY
360
916
102
}
330
16E
100
AcDbEntity
  8
Title (ANSI)
100
AcDbText
 10
1.37409370326175
 20
2.345361956702982
 30
0.0
 40
0.1000000031914298
  1

  7
Note Text (ANSI)
 72
     1
 11
1.37409370326175
 21
2.395361958298697
 31
0.0
100
AcDbAttributeDefinition
  3
CutLength
  2
CutLength
 70
     0
 74
     2
  0
ATTDEF
  5
1C8
102
{ACAD_XDICTIONARY
360
919
102
}
330
16E
100
AcDbEntity
  8
Title (ANSI)
100
AcDbText
 10
2.965801022660366
 20
1.501535622857386
 30
0.0
 40
0.1249999981226883
  1
1623HD
  7
Text Style39
100
AcDbAttributeDefinition
  3
PART NUMBER
  2
PART_NUMBER_001
 70
     0
  0
ENDBLK
  5
170
330
16E
100
AcDbEntity
  8
0
100
AcDbBlockEnd
  0
BLOCK
  5
233
330
232
100
AcDbEntity
  8
0
100
AcDbBlockBegin
  2
*D9
 70
     1
 10
0.0
 20
0.0
 30
0.0
  3
*D9
  1

  0
LINE
  5
2C7
330
232
100
AcDbEntity
  8
Dimension (ANSI)
100
AcDbLine
 10
6.486985099428078
 20
10.94977608162098
 30
0.0
 11
8.126985098235145
 21
10.94977442852221
 31
0.0
  0
LINE
  5
2C8
330
232
100
AcDbEntity
  8
Dimension (ANSI)
100
AcDbLine
 10
8.266985098831121
 20
10.94977428740402
 30
0.0
 11
10.13589410138226
 21
10.94977240356795
 31
0.0
  0
INSERT
  5
2C9
330
232
100
AcDbEntity
  8
Dimension (ANSI)
100
AcDbBlockReference
  2
Flared Half 1-1
 10
6.346985098832104
 20
10.94977622273916
 30
0.0
 41
0.1400000005960464
 42
0.1400000005960464
 43
0.1400000005960464
 50
179.999942246596
  0
INSERT
  5
2CA
330
232
100
AcDbEntity
  8
Dimension (ANSI)
100
AcDbBlockReference
  2
Flared Half 1-1
 10
8.266985098831121
 20
10.94977428740402
 30
0.0
 41
0.1400000005960464
 42
0.1400000005960464
 43
0.1400000005960464
 50
359.999942246596
  0
MTEXT
  5
2CB
102
{ACAD_XDICTIONARY
360
987
102
}
330
232
100
AcDbEntity
  8
Dimension (ANSI)
100
AcDbMText
 10
12.19008890674951
 20
10.94977240356794
 30
0.0
 40
0.2000000029802322
 41
0.0
 71
     5
 72
     1
  1
\A1;\U+22051.920\S+0.020^ -0.000; {\o\l\H0.480000;[}\U+220548.77\S+0.51^ -0.00;{\o\l\H0.480000;]}
 73
     1
 44
1.0
1001
ACAD
1000
MTEXTBEGIN
1070
    73
1070
     1
1070
    44
1040
1.0
1070
    74
1070
     0
1000
MTEXTEND
  0
POINT
  5
2CC
330
232
100
AcDbEntity
  8
Defpoints
 62
     0
100
AcDbPoint
 10
8.266985098831121
 20
10.94977428740402
 30
0.0
  0
POINT
  5
2CD
330
232
100
AcDbEntity
  8
Defpoints
 62
     0
100
AcDbPoint
 10
6.346985098832104
 20
10.94977622273916
 30
0.0
  0
ENDBLK
  5
234
330
232
100
AcDbEntity
  8
0
100
AcDbBlockEnd
  0
BLOCK
  5
2D0
330
2CF
100
AcDbEntity
  8
0
100
AcDbBlockBegin
  2
*D10
 70
     1
 10
0.0
 20
0.0
 30
0.0
  3
*D10
  1

  0
LINE
  5
3C2
330
2CF
100
AcDbEntity
  8
Dimension (ANSI)
100
AcDbLine
 10
9.5994850988302
 20
6.058823575573863
 30
0.0
 11
10.4194738094135
 21
6.058823575573862
 31
0.0
  0
LINE
  5
3C3
330
2CF
100
AcDbEntity
  8
Dimension (ANSI)
100
AcDbLine
 10
9.619485098830239
 20
5.808823575573863
 30
0.0
 11
10.4194738094135
 21
5.808823575573862
 31
0.0
  0
LINE
  5
3C4
330
2CF
100
AcDbEntity
  8
Dimension (ANSI)
100
AcDbLine
 10
10.2944738094135
 20
6.198823576169909
 30
0.0
 11
10.2944738094135
 21
6.338823576765955
 31
0.0
  0
LINE
  5
3C5
330
2CF
100
AcDbEntity
  8
Dimension (ANSI)
100
AcDbLine
 10
10.2944738094135
 20
5.668823574977816
 30
0.0
 11
10.2944738094135
 21
5.528823574381769
 31
0.0
  0
LINE
  5
3C6
330
2CF
100
AcDbEntity
  8
Dimension (ANSI)
100
AcDbLine
 10
10.43447381000955
 20
6.974719103330722
 30
0.0
 11
10.2944738094135
 21
6.974719103330722
 31
0.0
  0
LINE
  5
3C7
330
2CF
100
AcDbEntity
  8
Dimension (ANSI)
100
AcDbLine
 10
10.2944738094135
 20
6.974719103330722
 30
0.0
 11
10.2944738094135
 21
6.338823576765955
 31
0.0
  0
MTEXT
  5
3C8
330
2CF
100
AcDbEntity
  8
Dimension (ANSI)
100
AcDbMText
 10
11.29244402044909
 20
6.974719103330724
 30
0.0
 40
0.2000000029802322
 41
0.0
 71
     5
 72
     1
  1
\A1;0.250 [6.35]
 73
     1
 44
1.0
1001
ACAD
1000
MTEXTBEGIN
1070
    73
1070
     1
1070
    44
1040
1.0
1070
    74
1070
     0
1000
MTEXTEND
  0
INSERT
  5
3C9
330
2CF
100
AcDbEntity
  8
Dimension (ANSI)
100
AcDbBlockReference
  2
Flared Half 1-1
 10
10.2944738094135
 20
6.058823575573862
 30
0.0
 41
0.1400000005960464
 42
0.1400000005960464
 43
0.1400000005960464
 50
270.0
  0
INSERT
  5
3CA
330
2CF
100
AcDbEntity
  8
Dimension (ANSI)
100
AcDbBlockReference
  2
Flared Half 1-1
 10
10.2944738094135
 20
5.808823575573862
 30
0.0
 41
0.1400000005960464
 42
0.1400000005960464
 43
0.1400000005960464
 50
90.0
  0
POINT
  5
3CB
330
2CF
100
AcDbEntity
  8
Defpoints
 62
     0
100
AcDbPoint
 10
9.4744850988302
 20
6.058823575573863
 30
0.0
  0
POINT
  5
3CC
330
2CF
100
AcDbEntity
  8
Defpoints
 62
     0
100
AcDbPoint
 10
9.494485098830239
 20
5.808823575573863
 30
0.0
  0
POINT
  5
3CD
330
2CF
100
AcDbEntity
  8
Defpoints
 62
     0
100
AcDbPoint
 10
10.2944738094135
 20
5.808823575573862
 30
0.0
  0
ENDBLK
  5
2D1
330
2CF
100
AcDbEntity
  8
0
100
AcDbBlockEnd
  0
BLOCK
  5
3D0
330
3CF
100
AcDbEntity
  8
0
100
AcDbBlockBegin
  2
*D11
 70
     1
 10
0.0
 20
0.0
 30
0.0
  3
*D11
  1

  0
LINE
  5
4C1
330
3CF
100
AcDbEntity
  8
Dimension (ANSI)
100
AcDbLine
 10
4.9944850988302
 20
5.808823575573863
 30
0.0
 11
4.589808797214636
 21
5.808823575573863
 31
0.0
  0
LINE
  5
4C2
330
3CF
100
AcDbEntity
  8
Dimension (ANSI)
100
AcDbLine
 10
6.034485098830201
 20
6.558823575573862
 30
0.0
 11
4.589808797214637
 21
6.558823575573863
 31
0.0
  0
LINE
  5
4C3
330
3CF
100
AcDbEntity
  8
Dimension (ANSI)
100
AcDbLine
 10
4.714808797214636
 20
5.948823576169909
 30
0.0
 11
4.714808797214637
 21
6.418823574977817
 31
0.0
  0
LINE
  5
4C4
330
3CF
100
AcDbEntity
  8
Dimension (ANSI)
100
AcDbLine
 10
4.574808796618589
 20
5.462828115547477
 30
0.0
 11
4.714808797214636
 21
5.462828115547477
 31
0.0
  0
LINE
  5
4C5
330
3CF
100
AcDbEntity
  8
Dimension (ANSI)
100
AcDbLine
 10
4.714808797214636
 20
5.462828115547477
 30
0.0
 11
4.714808797214636
 21
5.808823575573863
 31
0.0
  0
MTEXT
  5
4C6
330
3CF
100
AcDbEntity
  8
Dimension (ANSI)
100
AcDbMText
 10
3.845796634432202
 20
5.462828115547478
 30
0.0
 40
0.2000000029802322
 41
0.0
 71
     5
 72
     1
  1
\A1;0.75 [19.1]
 73
     1
 44
1.0
1001
ACAD
1000
MTEXTBEGIN
1070
    73
1070
     1
1070
    44
1040
1.0
1070
    74
1070
     0
1000
MTEXTEND
  0
INSERT
  5
4C7
330
3CF
100
AcDbEntity
  8
Dimension (ANSI)
100
AcDbBlockReference
  2
Flared Half 1-1
 10
4.714808797214636
 20
5.808823575573863
 30
0.0
 41
0.1400000005960464
 42
0.1400000005960464
 43
0.1400000005960464
 50
270.0
  0
INSERT
  5
4C8
330
3CF
100
AcDbEntity
  8
Dimension (ANSI)
100
AcDbBlockReference
  2
Flared Half 1-1
 10
4.714808797214637
 20
6.558823575573863
 30
0.0
 41
0.1400000005960464
 42
0.1400000005960464
 43
0.1400000005960464
 50
90.0
  0
POINT
  5
4C9
330
3CF
100
AcDbEntity
  8
Defpoints
 62
     0
100
AcDbPoint
 10
5.1194850988302
 20
5.808823575573863
 30
0.0
  0
POINT
  5
4CA
330
3CF
100
AcDbEntity
  8
Defpoints
 62
     0
100
AcDbPoint
 10
6.159485098830201
 20
6.558823575573862
 30
0.0
  0
POINT
  5
4CB
330
3CF
100
AcDbEntity
  8
Defpoints
 62
     0
100
AcDbPoint
 10
4.714808797214637
 20
6.558823575573863
 30
0.0
  0
ENDBLK
  5
3D1
330
3CF
100
AcDbEntity
  8
0
100
AcDbBlockEnd
  0
BLOCK
  5
4CE
330
4CD
100
AcDbEntity
  8
0
100
AcDbBlockBegin
  2
*D12
 70
     1
 10
0.0
 20
0.0
 30
0.0
  3
*D12
  1

  0
LINE
  5
56D
330
4CD
100
AcDbEntity
  8
Dimension (ANSI)
100
AcDbLine
 10
8.475951880926352
 20
9.268771712565287
 30
0.0
 11
6.138018316736869
 21
12.63077879757759
 31
0.0
  0
LINE
  5
56E
330
4CD
100
AcDbEntity
  8
Dimension (ANSI)
100
AcDbLine
 10
6.058088963751444
 20
12.74571921126323
 30
0.0
 11
5.245680081456781
 21
13.91398355377394
 31
0.0
  0
LINE
  5
56F
330
4CD
100
AcDbEntity
  8
Dimension (ANSI)
100
AcDbLine
 10
5.245680081456781
 20
13.91398355377394
 30
0.0
 11
5.105680080860736
 21
13.91398355377394
 31
0.0
  0
INSERT
  5
570
330
4CD
100
AcDbEntity
  8
Dimension (ANSI)
100
AcDbBlockReference
  2
Flared Half 1-1
 10
8.555881233911781
 20
9.153831298879657
 30
0.0
 41
0.1400000005960464
 42
0.1400000005960464
 43
0.1400000005960464
 50
304.8146805804698
  0
INSERT
  5
571
330
4CD
100
AcDbEntity
  8
Dimension (ANSI)
100
AcDbBlockReference
  2
Flared Half 1-1
 10
6.058088963751444
 20
12.74571921126323
 30
0.0
 41
0.1400000005960464
 42
0.1400000005960464
 43
0.1400000005960464
 50
124.8146805804698
  0
MTEXT
  5
572
102
{ACAD_XDICTIONARY
360
989
102
}
330
4CD
100
AcDbEntity
  8
Dimension (ANSI)
100
AcDbMText
 10
4.116722052258486
 20
13.91398355377395
 30
0.0
 40
0.2000000029802322
 41
0.0
 71
     5
 72
     1
  1
\A1;\U+22054.38 [\U+2205111.1]
 73
     1
 44
1.0
1001
ACAD
1000
MTEXTBEGIN
1070
    73
1070
     1
1070
    44
1040
1.0
1070
    74
1070
     0
1000
MTEXTEND
  0
POINT
  5
573
330
4CD
100
AcDbEntity
  8
Defpoints
 62
     0
100
AcDbPoint
 10
6.058088963751444
 20
12.74571921126323
 30
0.0
  0
POINT
  5
574
330
4CD
100
AcDbEntity
  8
Defpoints
 62
     0
100
AcDbPoint
 10
8.555881233911781
 20
9.153831298879657
 30
0.0
  0
ENDBLK
  5
4CF
330
4CD
100
AcDbEntity
  8
0
100
AcDbBlockEnd
  0
BLOCK
  5
577
330
576
100
AcDbEntity
  8
0
100
AcDbBlockBegin
  2
*D13
 70
     1
 10
0.0
 20
0.0
 30
0.0
  3
*D13
  1

  0
LINE
  5
606
330
576
100
AcDbEntity
  8
Dimension (ANSI)
100
AcDbLine
 10
9.270712996619435
 20
7.461325884977364
 30
0.0
 11
9.130712996023387
 21
7.461325884977363
 31
0.0
  0
LINE
  5
607
330
576
100
AcDbEntity
  8
Dimension (ANSI)
100
AcDbLine
 10
9.130712996023387
 20
7.461325884977363
 30
0.0
 11
8.675157690965839
 21
6.19793427162233
 31
0.0
  0
MTEXT
  5
608
330
576
100
AcDbEntity
  8
Dimension (ANSI)
100
AcDbMText
 10
10.10770891799367
 20
7.461325884977365
 30
0.0
 40
0.2000000029802322
 41
0.0
 71
     5
 72
     1
  1
\A1;R0.13 [R3.2]
 73
     1
 44
1.0
1001
ACAD
1000
MTEXTBEGIN
1070
    73
1070
     1
1070
    44
1040
1.0
1070
    74
1070
     0
1000
MTEXTEND
  0
INSERT
  5
609
330
576
100
AcDbEntity
  8
Dimension (ANSI)
100
AcDbBlockReference
  2
Flared Half 1-1
 10
8.627669205708201
 20
6.066234446509203
 30
0.0
 41
0.1400000005960464
 42
0.1400000005960464
 43
0.1400000005960464
 50
250.1716477267036
  0
POINT
  5
60A
330
576
100
AcDbEntity
  8
Defpoints
 62
     0
100
AcDbPoint
 10
8.627669205708201
 20
6.066234446509203
 30
0.0
  0
POINT
  5
60B
330
576
100
AcDbEntity
  8
Defpoints
 62
     0
100
AcDbPoint
 10
8.670069638793432
 20
6.183823575573861
 30
0.0
  0
ENDBLK
  5
578
330
576
100
AcDbEntity
  8
0
100
AcDbBlockEnd
  0
BLOCK
  5
60E
330
60D
100
AcDbEntity
  8
0
100
AcDbBlockBegin
  2
*D14
 70
     1
 10
0.0
 20
0.0
 30
0.0
  3
*D14
  1

  0
LINE
  5
6EA
330
60D
100
AcDbEntity
  8
Dimension (ANSI)
100
AcDbLine
 10
5.621798382601912
 20
10.52839472434107
 30
0.0
 11
5.616920637410737
 21
8.257548929902867
 31
0.0
  0
LINE
  5
6EB
330
60D
100
AcDbEntity
  8
Dimension (ANSI)
100
AcDbLine
 10
8.99163481977628
 20
10.52115636253036
 30
0.0
 11
8.986757074585106
 21
8.250310568092158
 31
0.0
  0
LINE
  5
6EC
330
60D
100
AcDbEntity
  8
Dimension (ANSI)
100
AcDbLine
 10
5.75718881268132
 20
8.382247924177697
 30
0.0
 11
6.632387064619489
 21
8.380368010501845
 31
0.0
  0
LINE
  5
6ED
330
60D
100
AcDbEntity
  8
Dimension (ANSI)
100
AcDbLine
 10
8.847025894599561
 20
8.37561099708879
 30
0.0
 11
8.50596862627154
 21
8.376343583358881
 31
0.0
  0
INSERT
  5
6EE
330
60D
100
AcDbEntity
  8
Dimension (ANSI)
100
AcDbBlockReference
  2
Flared Half 1-1
 10
5.617189135053256
 20
8.382548641538598
 30
0.0
 41
0.1400000005960464
 42
0.1400000005960464
 43
0.1400000005960464
 50
179.8769296515583
  0
INSERT
  5
6EF
330
60D
100
AcDbEntity
  8
Dimension (ANSI)
100
AcDbBlockReference
  2
Flared Half 1-1
 10
8.987025572227624
 20
8.375310279727889
 30
0.0
 41
0.1400000005960464
 42
0.1400000005960464
 43
0.1400000005960464
 50
359.8769296515583
  0
MTEXT
  5
6F0
330
60D
100
AcDbEntity
  8
Dimension (ANSI)
100
AcDbMText
 10
7.569177845445516
 20
8.378355796930364
 30
0.0
 40
0.2000000029802322
 41
0.0
 71
     5
 72
     1
  1
\A1;3.370 [85.59]
 11
0.9999976930858498
 21
-0.0021479811401467
 31
0.0
 73
     1
 44
1.0
1001
ACAD
1000
MTEXTBEGIN
1070
    73
1070
     1
1070
    44
1040
1.0
1070
    74
1070
     0
1000
MTEXTEND
  0
POINT
  5
6F1
330
60D
100
AcDbEntity
  8
Defpoints
 62
     0
100
AcDbPoint
 10
5.62206688024443
 20
10.65339443597681
 30
0.0
  0
POINT
  5
6F2
330
60D
100
AcDbEntity
  8
Defpoints
 62
     0
100
AcDbPoint
 10
8.991903317418799
 20
10.64615607416609
 30
0.0
  0
POINT
  5
6F3
330
60D
100
AcDbEntity
  8
Defpoints
 62
     0
100
AcDbPoint
 10
8.987025572227624
 20
8.375310279727889
 30
0.0
  0
ENDBLK
  5
60F
330
60D
100
AcDbEntity
  8
0
100
AcDbBlockEnd
  0
BLOCK
  5
6F6
330
6F5
100
AcDbEntity
  8
0
100
AcDbBlockBegin
  2
*D15
 70
     1
 10
0.0
 20
0.0
 30
0.0
  3
*D15
  1

  0
LINE
  5
7E7
330
6F5
100
AcDbEntity
  8
Dimension (ANSI)
100
AcDbLine
 10
7.510604279736969
 20
12.40969347365864
 30
0.0
 11
9.291124729390977
 21
12.40969347365864
 31
0.0
  0
LINE
  5
7E8
330
6F5
100
AcDbEntity
  8
Dimension (ANSI)
100
AcDbLine
 10
7.510604279736969
 20
12.85969347365863
 30
0.0
 11
9.291124729390977
 21
12.85969347365863
 31
0.0
  0
LINE
  5
7E9
330
6F5
100
AcDbEntity
  8
Dimension (ANSI)
100
AcDbLine
 10
9.166124729390977
 20
12.54969347425468
 30
0.0
 11
9.166124729390977
 21
12.71969347306258
 31
0.0
  0
LINE
  5
7EA
330
6F5
100
AcDbEntity
  8
Dimension (ANSI)
100
AcDbLine
 10
9.306124729987024
 20
13.32734520281688
 30
0.0
 11
9.166124729390977
 21
13.32734520281688
 31
0.0
  0
LINE
  5
7EB
330
6F5
100
AcDbEntity
  8
Dimension (ANSI)
100
AcDbLine
 10
9.166124729390977
 20
13.32734520281688
 30
0.0
 11
9.166124729390977
 21
12.85969347365863
 31
0.0
  0
MTEXT
  5
7EC
330
6F5
100
AcDbEntity
  8
Dimension (ANSI)
100
AcDbMText
 10
10.0351368921734
 20
13.32734520281688
 30
0.0
 40
0.2000000029802322
 41
0.0
 71
     5
 72
     1
  1
\A1;0.45 [11.4]
 73
     1
 44
1.0
1001
ACAD
1000
MTEXTBEGIN
1070
    73
1070
     1
1070
    44
1040
1.0
1070
    74
1070
     0
1000
MTEXTEND
  0
INSERT
  5
7ED
330
6F5
100
AcDbEntity
  8
Dimension (ANSI)
100
AcDbBlockReference
  2
Flared Half 1-1
 10
9.166124729390977
 20
12.40969347365864
 30
0.0
 41
0.1400000005960464
 42
0.1400000005960464
 43
0.1400000005960464
 50
270.0
  0
INSERT
  5
7EE
330
6F5
100
AcDbEntity
  8
Dimension (ANSI)
100
AcDbBlockReference
  2
Flared Half 1-1
 10
9.166124729390977
 20
12.85969347365863
 30
0.0
 41
0.1400000005960464
 42
0.1400000005960464
 43
0.1400000005960464
 50
90.0
  0
POINT
  5
7EF
330
6F5
100
AcDbEntity
  8
Defpoints
 62
     0
100
AcDbPoint
 10
7.385604279736969
 20
12.40969347365864
 30
0.0
  0
POINT
  5
7F0
330
6F5
100
AcDbEntity
  8
Defpoints
 62
     0
100
AcDbPoint
 10
7.385604279736969
 20
12.85969347365863
 30
0.0
  0
POINT
  5
7F1
330
6F5
100
AcDbEntity
  8
Defpoints
 62
     0
100
AcDbPoint
 10
9.166124729390977
 20
12.85969347365863
 30
0.0
  0
ENDBLK
  5
6F7
330
6F5
100
AcDbEntity
  8
0
100
AcDbBlockEnd
  0
BLOCK
  5
7F4
330
7F3
100
AcDbEntity
  8
0
100
AcDbBlockBegin
  2
*D16
 70
     1
 10
0.0
 20
0.0
 30
0.0
  3
*D16
  1

  0
LINE
  5
8D0
330
7F3
100
AcDbEntity
  8
Dimension (ANSI)
100
AcDbLine
 10
7.010604279736969
 20
12.75969347365863
 30
0.0
 11
7.010604279736969
 21
14.00969347365863
 31
0.0
  0
LINE
  5
8D1
330
7F3
100
AcDbEntity
  8
Dimension (ANSI)
100
AcDbLine
 10
7.610604279736969
 20
12.75969347365863
 30
0.0
 11
7.610604279736969
 21
14.00969347365863
 31
0.0
  0
LINE
  5
8D2
330
7F3
100
AcDbEntity
  8
Dimension (ANSI)
100
AcDbLine
 10
7.150604280333015
 20
13.88469347365864
 30
0.0
 11
7.470604279140923
 21
13.88469347365864
 31
0.0
  0
LINE
  5
8D3
330
7F3
100
AcDbEntity
  8
Dimension (ANSI)
100
AcDbLine
 10
7.610604279736969
 20
13.88469347365864
 30
0.0
 11
8.325896609633995
 21
13.88469347365864
 31
0.0
  0
INSERT
  5
8D4
330
7F3
100
AcDbEntity
  8
Dimension (ANSI)
100
AcDbBlockReference
  2
Flared Half 1-1
 10
7.010604279736969
 20
13.88469347365864
 30
0.0
 41
0.1400000005960464
 42
0.1400000005960464
 43
0.1400000005960464
 50
180.0
  0
INSERT
  5
8D5
330
7F3
100
AcDbEntity
  8
Dimension (ANSI)
100
AcDbBlockReference
  2
Flared Half 1-1
 10
7.610604279736969
 20
13.88469347365864
 30
0.0
 41
0.1400000005960464
 42
0.1400000005960464
 43
0.1400000005960464
  0
MTEXT
  5
8D6
330
7F3
100
AcDbEntity
  8
Dimension (ANSI)
100
AcDbMText
 10
9.077100922831418
 20
13.88469347365864
 30
0.0
 40
0.2000000029802322
 41
0.0
 71
     5
 72
     1
  1
\A1;0.60 [15.2]
 73
     1
 44
1.0
1001
ACAD
1000
MTEXTBEGIN
1070
    73
1070
     1
1070
    44
1040
1.0
1070
    74
1070
     0
1000
MTEXTEND
  0
POINT
  5
8D7
330
7F3
100
AcDbEntity
  8
Defpoints
 62
     0
100
AcDbPoint
 10
7.010604279736969
 20
12.63469347365864
 30
0.0
  0
POINT
  5
8D8
330
7F3
100
AcDbEntity
  8
Defpoints
 62
     0
100
AcDbPoint
 10
7.610604279736969
 20
12.63469347365864
 30
0.0
  0
POINT
  5
8D9
330
7F3
100
AcDbEntity
  8
Defpoints
 62
     0
100
AcDbPoint
 10
7.610604279736969
 20
13.88469347365864
 30
0.0
  0
ENDBLK
  5
7F5
330
7F3
100
AcDbEntity
  8
0
100
AcDbBlockEnd
  0
ENDSEC
  0
SECTION
  2
ENTITIES
  0
INSERT
  5
16D
330
71
100
AcDbEntity
  8
0
100
AcDbBlockReference
  2
Borders Default Border
 10
0.0
 20
0.0
 30
0.0
 41
2.0
 42
2.0
 43
2.0
  0
INSERT
  5
1C9
330
71
100
AcDbEntity
  8
0
100
AcDbBlockReference
 66
     1
  2
Title Blocks Wagner Component Title Block
 10
7.040000000000001
 20
-2.14
 30
0.0
 41
2.0
 42
2.0
 43
2.0
  0
ATTRIB
  5
1CB
102
{ACAD_XDICTIONARY
360
91C
102
}
330
1C9
100
AcDbEntity
  8
Title (ANSI)
100
AcDbText
 10
12.72976308424933
 20
1.479742739936545
 30
0.0
 40
0.159999998066369
  1
kturdo
  7
Text Style40
100
AcDbAttribute
  2
AUTHOR_001
 70
     0
  0
ATTRIB
  5
1CC
102
{ACAD_XDICTIONARY
360
91F
102
}
330
1C9
100
AcDbEntity
  8
Title (ANSI)
100
AcDbText
 10
13.06135278367976
 20
2.899693850115211
 30
0.0
 40
0.159999998066369
  1
Flange, ST, Heavy, 1/4 in Thick, For 1-1/2 in Pipe (1.90 in Dia) 4 Oval Mount Holes
  7
Text Style40
100
AcDbAttribute
  2
DESCRIPTION_001
 70
     0
  0
ATTRIB
  5
1CD
102
{ACAD_XDICTIONARY
360
922
102
}
330
1C9
100
AcDbEntity
  8
Title (ANSI)
100
AcDbText
 10
12.53515298165038
 20
1.981955053422791
 30
0.0
 40
0.159999998066369
  1
2/14/2013
  7
Text Style40
100
AcDbAttribute
  2
CREATION_DATE_001
 70
     0
  0
ATTRIB
  5
1CE
102
{ACAD_XDICTIONARY
360
925
102
}
330
1C9
100
AcDbEntity
  8
Title (ANSI)
100
AcDbText
 10
11.25112850704707
 20
1.026599392712225
 30
0.0
 40
0.2499999962453767
  1
A
  7
Text Style39
100
AcDbAttribute
  2
Sheet_Size_001
 70
     0
  0
ATTRIB
  5
1CF
102
{ACAD_XDICTIONARY
360
928
102
}
330
1C9
100
AcDbEntity
  8
Title (ANSI)
100
AcDbText
 10
10.58264939094518
 20
1.78049620831468
 30
0.0
 40
0.159999998066369
  1
0.95 lbmass
  7
Text Style40
100
AcDbAttribute
  2
MASS\P2;_001
 70
     0
  0
ATTRIB
  5
1D0
102
{ACAD_XDICTIONARY
360
92B
102
}
330
1C9
100
AcDbEntity
  8
Title (ANSI)
100
AcDbText
 10
18.27767040018812
 20
0.8667392689039566
 30
0.0
 40
0.2499999962453767
  1
1623HD
  7
Text Style39
100
AcDbAttribute
  2
PART_NUMBER_001
 70
     0
  0
ATTRIB
  5
1D1
102
{ACAD_XDICTIONARY
360
92E
102
}
330
1C9
100
AcDbEntity
  8
Title (ANSI)
100
AcDbText
 10
20.87703606635197
 20
0.8565991523304036
 30
0.0
 40
0.2499999962453767
  1
-
  7
Text Style39
100
AcDbAttribute
  2
REVISION_NUMBER_001
 70
     0
  0
ATTRIB
  5
1D2
102
{ACAD_XDICTIONARY
360
931
102
}
330
1C9
100
AcDbEntity
  8
Title (ANSI)
100
AcDbText
 10
11.16688764555191
 20
2.588547339884518
 30
0.0
 40
0.159999998066369
  1

  7
Text Style40
 72
     1
 11
11.16688764555191
 21
2.668547338917703
 31
0.0
100
AcDbAttribute
  2
Finish
 70
     0
 74
     2
  0
ATTRIB
  5
1D3
102
{ACAD_XDICTIONARY
360
934
102
}
330
1C9
100
AcDbEntity
  8
Title (ANSI)
100
AcDbText
 10
13.1036337421924
 20
2.406093837723182
 30
0.0
 40
0.159999998066369
  1
Steel
  7
Text Style40
100
AcDbAttribute
  2
MATERIAL_001
 70
     0
  0
ATTRIB
  5
1D4
102
{ACAD_XDICTIONARY
360
937
102
}
330
1C9
100
AcDbEntity
  8
Title (ANSI)
100
AcDbText
 10
16.58997848658965
 20
2.398158546944975
 30
0.0
 40
0.2000000063828596
  1
.25" Thick Coiled Steel
  7
Note Text (ANSI)
100
AcDbAttribute
  2
AUTHOR_001
 70
     0
  0
ATTRIB
  5
1D5
102
{ACAD_XDICTIONARY
360
93A
102
}
330
1C9
100
AcDbEntity
  8
Title (ANSI)
100
AcDbText
 10
9.7929015788346
 20
0.9521385205224055
 30
0.0
 40
0.2000000063828596
  1

  7
Note Text (ANSI)
 72
     1
 11
9.7929015788346
 21
1.052138523713835
 31
0.0
100
AcDbAttribute
  2
ToolNumber
 70
     0
 74
     2
  0
ATTRIB
  5
1D6
102
{ACAD_XDICTIONARY
360
93D
102
}
330
1C9
100
AcDbEntity
  8
Title (ANSI)
100
AcDbText
 10
9.78343877142178
 20
1.765503767494863
 30
0.0
 40
0.2000000063828596
  1

  7
Note Text (ANSI)
 72
     1
 11
9.78343877142178
 21
1.865503770686293
 31
0.0
100
AcDbAttribute
  2
DevLength
 70
     0
 74
     2
  0
ATTRIB
  5
1D7
102
{ACAD_XDICTIONARY
360
940
102
}
330
1C9
100
AcDbEntity
  8
Title (ANSI)
100
AcDbText
 10
9.788187406523503
 20
2.550723913405963
 30
0.0
 40
0.2000000063828596
  1

  7
Note Text (ANSI)
 72
     1
 11
9.788187406523503
 21
2.650723916597393
 31
0.0
100
AcDbAttribute
  2
CutLength
 70
     0
 74
     2
  0
ATTRIB
  5
1D8
102
{ACAD_XDICTIONARY
360
943
102
}
330
1C9
100
AcDbEntity
  8
Title (ANSI)
100
AcDbText
 10
12.97160204532073
 20
0.8630712457147737
 30
0.0
 40
0.2499999962453767
  1
1623HD
  7
Text Style39
100
AcDbAttribute
  2
PART_NUMBER_001
 70
     0
  0
SEQEND
  5
1CA
330
1C9
100
AcDbEntity
  8
0
  0
LINE
  5
1D9
330
71
100
AcDbEntity
  8
Hidden (ANSI)
 48
0.2379870712757111
100
AcDbLine
 10
8.766903317417385
 20
6.058823575573863
 30
0.0
 11
8.766903317417385
 21
5.808823575573863
 31
0.0
  0
LINE
  5
1DA
330
71
100
AcDbEntity
  8
Hidden (ANSI)
 48
0.2379870712757111
100
AcDbLine
 10
9.216903317417385
 20
6.058823575573863
 30
0.0
 11
9.216903317417385
 21
5.808823575573863
 31
0.0
  0
LINE
  5
1DB
330
71
100
AcDbEntity
  8
Hidden (ANSI)
 48
0.2379870712757111
100
AcDbLine
 10
5.397066880243016
 20
6.058823575573863
 30
0.0
 11
5.397066880243016
 21
5.808823575573863
 31
0.0
  0
LINE
  5
1DC
330
71
100
AcDbEntity
  8
Hidden (ANSI)
 48
0.2379870712757111
100
AcDbLine
 10
5.847066880243016
 20
6.058823575573863
 30
0.0
 11
5.847066880243016
 21
5.808823575573863
 31
0.0
  0
LINE
  5
1DD
330
71
100
AcDbEntity
  8
Hidden (ANSI)
 48
0.2379870712757111
100
AcDbLine
 10
7.003365917924845
 20
6.058823575573863
 30
0.0
 11
7.003365917924845
 21
5.808823575573863
 31
0.0
  0
LINE
  5
1DE
330
71
100
AcDbEntity
  8
Hidden (ANSI)
 48
0.2379870712757111
100
AcDbLine
 10
7.603365917924845
 20
6.058823575573863
 30
0.0
 11
7.603365917924845
 21
5.808823575573863
 31
0.0
  0
LINE
  5
1DF
330
71
100
AcDbEntity
  8
Visible (ANSI)
100
AcDbLine
 10
5.1394850988302
 20
6.058823575573863
 30
0.0
 11
9.4744850988302
 21
6.058823575573863
 31
0.0
  0
ARC
  5
1E0
330
71
100
AcDbEntity
  8
Visible (ANSI)
100
AcDbCircle
 10
9.4744850988302
 20
6.038823575573863
 30
0.0
 40
0.02
100
AcDbArc
 50
0.0
 51
90.0
  0
ARC
  5
1E1
330
71
100
AcDbEntity
  8
Visible (ANSI)
100
AcDbCircle
 10
5.1394850988302
 20
6.038823575573863
 30
0.0
 40
0.02
100
AcDbArc
 50
90.0
 51
180.0
  0
LINE
  5
1E2
330
71
100
AcDbEntity
  8
Visible (ANSI)
100
AcDbLine
 10
9.494485098830201
 20
5.808823575573863
 30
0.0
 11
5.1194850988302
 21
5.808823575573863
 31
0.0
  0
LINE
  5
1E3
330
71
100
AcDbEntity
  8
Visible (ANSI)
100
AcDbLine
 10
8.454485098830199
 20
6.558823575573862
 30
0.0
 11
6.159485098830201
 21
6.558823575573862
 31
0.0
  0
LINE
  5
1E4
330
71
100
AcDbEntity
  8
Visible (ANSI)
100
AcDbLine
 10
5.1194850988302
 20
5.808823575573863
 30
0.0
 11
5.1194850988302
 21
6.038823575573863
 31
0.0
  0
LINE
  5
1E5
330
71
100
AcDbEntity
  8
Visible (ANSI)
100
AcDbLine
 10
9.494485098830201
 20
5.808823575573863
 30
0.0
 11
9.494485098830201
 21
6.038823575573863
 31
0.0
  0
ARC
  5
1E6
330
71
100
AcDbEntity
  8
Visible (ANSI)
100
AcDbCircle
 10
8.67006963879343
 20
6.183823575573863
 30
0.0
 40
0.125
100
AcDbArc
 50
193.0972217669908
 51
270.0
  0
ARC
  5
1E7
330
71
100
AcDbEntity
  8
Visible (ANSI)
100
AcDbCircle
 10
5.943900558866971
 20
6.183823575573863
 30
0.0
 40
0.1250000000000001
100
AcDbArc
 50
269.9999999999997
 51
346.9027782330091
  0
LINE
  5
1E8
330
71
100
AcDbEntity
  8
Visible (ANSI)
100
AcDbLine
 10
8.454485098830199
 20
6.558823575573862
 30
0.0
 11
8.54832126925589
 21
6.1554980656058
 31
0.0
  0
LINE
  5
1E9
330
71
100
AcDbEntity
  8
Visible (ANSI)
100
AcDbLine
 10
6.159485098830201
 20
6.558823575573862
 30
0.0
 11
6.065648928404511
 21
6.1554980656058
 31
0.0
  0
LINE
  5
1EA
330
71
100
AcDbEntity
  8
Hidden (ANSI)
 48
0.2677479684352875
100
AcDbLine
 10
6.3469850988302
 20
6.277573575573863
 30
0.0
 11
6.3469850988302
 21
6.558823575573862
 31
0.0
  0
LINE
  5
1EB
330
71
100
AcDbEntity
  8
Hidden (ANSI)
 48
0.2677479684352875
100
AcDbLine
 10
8.2669850988302
 20
6.277573575573863
 30
0.0
 11
8.2669850988302
 21
6.558823575573862
 31
0.0
  0
ARC
  5
1EC
330
71
100
AcDbEntity
  8
Hidden (ANSI)
 48
0.8905549049377441
100
AcDbCircle
 10
8.7357350988302
 20
6.277573575573863
 30
0.0
 40
0.4687500000000004
100
AcDbArc
 50
180.0
 51
270.0
  0
ARC
  5
1ED
330
71
100
AcDbEntity
  8
Hidden (ANSI)
 48
0.8905549049377441
100
AcDbCircle
 10
5.878235098830201
 20
6.277573575573863
 30
0.0
 40
0.4687500000000004
100
AcDbArc
 50
270.0
 51
0.0
  0
LINE
  5
1EE
330
71
100
AcDbEntity
  8
Hidden (ANSI)
 48
0.2379870712757111
100
AcDbLine
 10
7.610604279735555
 20
6.058823575573863
 30
0.0
 11
7.610604279735555
 21
5.808823575573863
 31
0.0
  0
LINE
  5
1EF
330
71
100
AcDbEntity
  8
Hidden (ANSI)
 48
0.2379870712757111
100
AcDbLine
 10
7.010604279735555
 20
6.058823575573863
 30
0.0
 11
7.010604279735555
 21
5.808823575573863
 31
0.0
  0
ARC
  5
1F0
330
71
100
AcDbEntity
  8
Visible (ANSI)
100
AcDbCircle
 10
8.991903317418799
 20
10.87115607416609
 30
0.0
 40
0.2250000000000001
100
AcDbArc
 50
180.0
 51
0.0
  0
LINE
  5
1F1
330
71
100
AcDbEntity
  8
Visible (ANSI)
100
AcDbLine
 10
9.216903317418797
 20
11.02115607416609
 30
0.0
 11
9.216903317418797
 21
10.87115607416609
 31
0.0
  0
ARC
  5
1F2
330
71
100
AcDbEntity
  8
Visible (ANSI)
100
AcDbCircle
 10
8.991903317418799
 20
11.02115607416609
 30
0.0
 40
0.2250000000000001
100
AcDbArc
 50
0.0
 51
180.0
  0
LINE
  5
1F3
330
71
100
AcDbEntity
  8
Visible (ANSI)
100
AcDbLine
 10
8.766903317418799
 20
10.87115607416609
 30
0.0
 11
8.766903317418799
 21
11.02115607416609
 31
0.0
  0
ARC
  5
1F4
330
71
100
AcDbEntity
  8
Visible (ANSI)
100
AcDbCircle
 10
7.228365917926259
 20
9.264857036484267
 30
0.0
 40
0.2250000000000001
100
AcDbArc
 50
90.0
 51
270.0
  0
LINE
  5
1F5
330
71
100
AcDbEntity
  8
Visible (ANSI)
100
AcDbLine
 10
7.378365917926259
 20
9.039857036484267
 30
0.0
 11
7.228365917926259
 21
9.039857036484267
 31
0.0
  0
ARC
  5
1F6
330
71
100
AcDbEntity
  8
Visible (ANSI)
100
AcDbCircle
 10
7.378365917926259
 20
9.264857036484267
 30
0.0
 40
0.2250000000000001
100
AcDbArc
 50
270.0
 51
90.0
  0
LINE
  5
1F7
330
71
100
AcDbEntity
  8
Visible (ANSI)
100
AcDbLine
 10
7.228365917926259
 20
9.489857036484266
 30
0.0
 11
7.378365917926259
 21
9.489857036484266
 31
0.0
  0
ARC
  5
1F8
330
71
100
AcDbEntity
  8
Visible (ANSI)
100
AcDbCircle
 10
5.62206688024443
 20
11.0283944359768
 30
0.0
 40
0.2250000000000001
100
AcDbArc
 50
0.0
 51
180.0
  0
LINE
  5
1F9
330
71
100
AcDbEntity
  8
Visible (ANSI)
100
AcDbLine
 10
5.39706688024443
 20
10.87839443597681
 30
0.0
 11
5.39706688024443
 21
11.0283944359768
 31
0.0
  0
ARC
  5
1FA
330
71
100
AcDbEntity
  8
Visible (ANSI)
100
AcDbCircle
 10
5.62206688024443
 20
10.87839443597681
 30
0.0
 40
0.2250000000000001
100
AcDbArc
 50
180.0
 51
0.0
  0
LINE
  5
1FB
330
71
100
AcDbEntity
  8
Visible (ANSI)
100
AcDbLine
 10
5.84706688024443
 20
11.0283944359768
 30
0.0
 11
5.84706688024443
 21
10.87839443597681
 31
0.0
  0
CIRCLE
  5
1FC
330
71
100
AcDbEntity
  8
Visible (ANSI)
100
AcDbCircle
 10
7.306985098831614
 20
10.94977525507144
 30
0.0
 40
2.1875
  0
ARC
  5
1FD
330
71
100
AcDbEntity
  8
Visible (ANSI)
100
AcDbCircle
 10
7.235604279736969
 20
12.63469347365863
 30
0.0
 40
0.2250000000000001
100
AcDbArc
 50
90.0
 51
270.0
  0
LINE
  5
1FE
330
71
100
AcDbEntity
  8
Visible (ANSI)
100
AcDbLine
 10
7.235604279736969
 20
12.85969347365863
 30
0.0
 11
7.385604279736969
 21
12.85969347365863
 31
0.0
  0
ARC
  5
1FF
330
71
100
AcDbEntity
  8
Visible (ANSI)
100
AcDbCircle
 10
7.385604279736969
 20
12.63469347365863
 30
0.0
 40
0.2250000000000001
100
AcDbArc
 50
270.0
 51
90.0
  0
LINE
  5
200
330
71
100
AcDbEntity
  8
Visible (ANSI)
100
AcDbLine
 10
7.385604279736969
 20
12.40969347365863
 30
0.0
 11
7.235604279736969
 21
12.40969347365863
 31
0.0
  0
CIRCLE
  5
201
330
71
100
AcDbEntity
  8
Visible (ANSI)
100
AcDbCircle
 10
7.306985098831614
 20
10.9497752550716
 30
0.0
 40
1.147499999999999
  0
CIRCLE
  5
202
330
71
100
AcDbEntity
  8
Visible (ANSI)
100
AcDbCircle
 10
7.306985098831614
 20
10.9497752550716
 30
0.0
 40
0.9599999999999999
  0
LINE
  5
203
330
71
100
AcDbEntity
  8
Visible Narrow (ANSI)
100
AcDbLine
 10
17.99854273605652
 20
12.23479012374976
 30
0.0
 11
17.99854273605652
 21
12.05155205254323
 31
0.0
  0
ELLIPSE
  5
204
330
71
100
AcDbEntity
  8
Visible (ANSI)
100
AcDbEllipse
 10
18.15764176182352
 20
12.14317108814649
 30
0.0
 11
-0.2250000000000002
 21
0.0000000000000134
 31
0.0
210
0.0
220
0.0
230
1.0
 40
0.5758617009853119
 41
5.497787143782526
 42
8.63937979737232
  0
LINE
  5
205
330
71
100
AcDbEntity
  8
Visible (ANSI)
100
AcDbLine
 10
18.42280680476848
 20
12.11263140961209
 30
0.0
 11
18.31674078759052
 21
12.05155205254323
 31
0.0
  0
ELLIPSE
  5
206
330
71
100
AcDbEntity
  8
Visible (ANSI)
100
AcDbEllipse
 10
18.26370777900148
 20
11.99986366400472
 30
0.0
 11
-0.2250000000000002
 21
-0.0000000000000134
 31
0.0
210
0.0
220
0.0
230
1.0
 40
0.5758617009853121
 41
4.042665180866421
 42
5.497787143782082
  0
ELLIPSE
  5
207
330
71
100
AcDbEntity
  8
Visible (ANSI)
100
AcDbEllipse
 10
18.26370777900148
 20
12.20425044521535
 30
0.0
 11
0.2250000000000002
 21
-0.0000000000000134
 31
0.0
210
0.0
220
0.0
230
1.0
 40
0.5758617009853119
 41
5.497787143782526
 42
8.63937979737232
  0
LINE
  5
208
330
71
100
AcDbEntity
  8
Visible Narrow (ANSI)
100
AcDbLine
 10
18.10460875323449
 20
12.29586948081861
 30
0.0
 11
18.10460875323449
 21
12.09148269960798
 31
0.0
  0
LINE
  5
209
330
71
100
AcDbEntity
  8
Visible (ANSI)
100
AcDbLine
 10
18.10460875323449
 20
12.09148269960798
 30
0.0
 11
18.01796863075155
 21
12.04158997130136
 31
0.0
  0
LINE
  5
20A
330
71
100
AcDbEntity
  8
Visible (ANSI)
100
AcDbLine
 10
17.99854273605652
 20
12.23479012374976
 30
0.0
 11
18.10460875323449
 21
12.29586948081861
 31
0.0
  0
ELLIPSE
  5
20B
330
71
100
AcDbEntity
  8
Visible (ANSI)
100
AcDbEllipse
 10
15.77480756560799
 20
12.00281109390871
 30
0.0
 11
-0.2250000000000002
 21
-0.0000000000000134
 31
0.0
210
0.0
220
0.0
230
1.0
 40
0.5758617009853121
 41
3.926990816987153
 42
5.38211277990255
  0
LINE
  5
20C
330
71
100
AcDbEntity
  8
Visible Narrow (ANSI)
100
AcDbLine
 10
15.93390659137494
 20
12.29881691072263
 30
0.0
 11
15.93390659137494
 21
12.09443012951199
 31
0.0
  0
ELLIPSE
  5
20D
330
71
100
AcDbEntity
  8
Visible (ANSI)
100
AcDbEllipse
 10
15.77480756560799
 20
12.20719787511934
 30
0.0
 11
-0.2250000000000002
 21
0.0
 31
0.0
210
0.0
220
0.0
230
1.0
 40
0.5758617009853121
 41
3.926990816987392
 42
7.068583470577185
  0
LINE
  5
20E
330
71
100
AcDbEntity
  8
Visible (ANSI)
100
AcDbLine
 10
15.72177455701904
 20
12.05449948244721
 30
0.0
 11
15.61570853984104
 21
12.11557883951605
 31
0.0
  0
ELLIPSE
  5
20F
330
71
100
AcDbEntity
  8
Visible (ANSI)
100
AcDbEllipse
 10
15.88087358278599
 20
12.1461185180505
 30
0.0
 11
0.2250000000000002
 21
0.0
 31
0.0
210
0.0
220
0.0
230
1.0
 40
0.5758617009853121
 41
3.926990816987392
 42
7.068583470577185
  0
LINE
  5
210
330
71
100
AcDbEntity
  8
Visible Narrow (ANSI)
100
AcDbLine
 10
16.03997260855294
 20
12.23773755365379
 30
0.0
 11
16.03997260855294
 21
12.05449948244721
 31
0.0
  0
LINE
  5
211
330
71
100
AcDbEntity
  8
Visible (ANSI)
100
AcDbLine
 10
16.02054671385795
 20
12.04453740120536
 30
0.0
 11
15.93390659137494
 21
12.09443012951199
 31
0.0
  0
LINE
  5
212
330
71
100
AcDbEntity
  8
Visible (ANSI)
100
AcDbLine
 10
15.93390659137494
 20
12.29881691072263
 30
0.0
 11
16.03997260855294
 21
12.23773755365379
 31
0.0
  0
ELLIPSE
  5
213
330
71
100
AcDbEntity
  8
Visible (ANSI)
100
AcDbEllipse
 10
15.88599187750666
 20
13.37499404730735
 30
0.0
 11
-0.2250000000000002
 21
0.0
 31
0.0
210
0.0
220
0.0
230
1.0
 40
0.5758617009853119
 41
4.442617198333159
 42
5.49778714378228
  0
ELLIPSE
  5
214
330
71
100
AcDbEntity
  8
Visible (ANSI)
100
AcDbEllipse
 10
15.88599187750666
 20
13.57938082851798
 30
0.0
 11
0.2250000000000006
 21
-0.0000000000000134
 31
0.0
210
0.0
220
0.0
230
1.0
 40
0.5758617009853121
 41
0.5434079789023594
 42
2.356194490192741
  0
LINE
  5
215
330
71
100
AcDbEntity
  8
Visible Narrow (ANSI)
100
AcDbLine
 10
15.72689285173966
 20
13.67099986412124
 30
0.0
 11
15.72689285173966
 21
13.46661308291061
 31
0.0
  0
LINE
  5
216
330
71
100
AcDbEntity
  8
Visible (ANSI)
100
AcDbLine
 10
15.72689285173966
 20
13.46661308291061
 30
0.0
 11
15.64025272925672
 21
13.41672035460399
 31
0.0
  0
LINE
  5
217
330
71
100
AcDbEntity
  8
Visible (ANSI)
100
AcDbLine
 10
15.62082683456169
 20
13.60992050705238
 30
0.0
 11
15.72689285173966
 21
13.67099986412124
 31
0.0
  0
LINE
  5
218
330
71
100
AcDbEntity
  8
Visible Narrow (ANSI)
100
AcDbLine
 10
15.62082683456169
 20
13.60992050705238
 30
0.0
 11
15.62082683456169
 21
13.42668243584586
 31
0.0
  0
ELLIPSE
  5
219
330
71
100
AcDbEntity
  8
Visible (ANSI)
100
AcDbEllipse
 10
15.77992586032869
 20
13.51830147144912
 30
0.0
 11
-0.2250000000000002
 21
0.0000000000000133
 31
0.0
210
0.0
220
0.0
230
1.0
 40
0.5758617009853121
 41
5.497787143782478
 42
8.416117772000378
  0
ELLIPSE
  5
21A
330
71
100
AcDbEntity
  8
Visible Narrow (ANSI)
100
AcDbEllipse
 10
17.02181681966509
 20
12.84492501583539
 30
0.0
 11
-2.1875
 21
-0.0000000000000006
 31
0.0
210
0.0
220
0.0
230
1.0
 40
0.5758617009853121
 41
0.0
 42
3.141592653589789
  0
ELLIPSE
  5
21B
330
71
100
AcDbEntity
  8
Visible Narrow (ANSI)
100
AcDbEllipse
 10
17.02181681966509
 20
12.86127595833224
 30
0.0
 11
-2.1675
 21
0.0000000000001289
 31
0.0
210
0.0
220
0.0
230
1.0
 40
0.5758617009853119
 41
0.0
 42
6.283185307179586
  0
SPLINE
  5
21C
330
71
100
AcDbEntity
  8
Visible (ANSI)
100
AcDbSpline
210
0.0
220
0.0
230
1.0
 70
     8
 71
     3
 72
    26
 73
    22
 74
     0
 42
0.000000001
 43
0.0000000001
 40
0.7853981633973001
 40
0.7853981633973001
 40
0.7853981633973001
 40
0.7853981633973001
 40
1.099634467019546
 40
1.099634467019546
 40
1.417925331756159
 40
1.417925331756159
 40
1.739250963440322
 40
1.739250963440322
 40
2.060747840854178
 40
2.060747840854178
 40
2.381978727133659
 40
2.381978727133659
 40
2.703112970225795
 40
2.703112970225795
 40
3.024379443785881
 40
3.024379443785881
 40
3.345912566682971
 40
3.345912566682971
 40
3.667033773957984
 40
3.667033773957984
 40
3.926990816987093
 40
3.926990816987093
 40
3.926990816987093
 40
3.926990816987093
 10
19.20931681966509
 20
12.84492501583539
 30
0.0
 10
19.20931681966509
 20
12.97930406484901
 30
0.0
 10
19.1722715691915
 20
13.11355973820154
 30
0.0
 10
19.02799905662314
 20
13.36918979860883
 30
0.0
 10
18.91999129169923
 20
13.49041368231252
 30
0.0
 10
18.64337496650959
 20
13.70773206463058
 30
0.0
 10
18.47420619184324
 20
13.80357195966922
 30
0.0
 10
18.09244302803212
 20
13.95950749893182
 30
0.0
 10
17.87988035488502
 20
14.01955107155597
 30
0.0
 10
17.43305328980734
 20
14.09786462546072
 30
0.0
 10
17.19888449480113
 20
14.11615219610163
 30
0.0
 10
16.73246304241542
 20
14.1092251631335
 30
0.0
 10
16.50029201428934
 20
14.08402524499451
 30
0.0
 10
16.06119172902578
 20
13.99260579281373
 30
0.0
 10
15.85434814868708
 20
13.92638939086055
 30
0.0
 10
15.48677882505658
 20
13.75931810071716
 30
0.0
 10
15.32614056458617
 20
13.65846777730185
 30
0.0
 10
15.06778444277682
 20
13.4319183802601
 30
0.0
 10
14.9699970128796
 20
13.30623731184125
 30
0.0
 10
14.8595953209698
 20
13.06720741900997
 30
0.0
 10
14.83431681966509
 20
12.95609224834153
 30
0.0
 10
14.83431681966509
 20
12.84492501583539
 30
0.0
  0
ELLIPSE
  5
21D
330
71
100
AcDbEntity
  8
Visible Narrow (ANSI)
100
AcDbEllipse
 10
17.02181681966509
 20
12.86127595833224
 30
0.0
 11
-1.363084539963228
 21
0.0
 31
0.0
210
0.0
220
0.0
230
1.0
 40
0.5758617009853121
 41
5.734588899427479
 42
9.973374368521486
  0
ELLIPSE
  5
21E
330
71
100
AcDbEntity
  8
Visible (ANSI)
100
AcDbEllipse
 10
17.02181681966509
 20
12.6568891771216
 30
0.0
 11
-2.1875
 21
-0.0000000000000004
 31
0.0
210
0.0
220
0.0
230
1.0
 40
0.5758617009853121
 41
0.0
 42
3.141592653589793
  0
ELLIPSE
  5
21F
330
71
100
AcDbEntity
  8
Visible Narrow (ANSI)
100
AcDbEllipse
 10
17.02181681966509
 20
12.94031190970347
 30
0.0
 11
-1.241336170425689
 21
0.0000000000000001
 31
0.0
210
0.0
220
0.0
230
1.0
 40
0.5758617009853121
 41
6.118565036948746
 42
9.589398231000219
  0
ELLIPSE
  5
220
330
71
100
AcDbEntity
  8
Visible (ANSI)
100
AcDbEllipse
 10
17.02181681966509
 20
13.27004952075351
 30
0.0
 11
-1.1475
 21
0.0
 31
0.0
210
0.0
220
0.0
230
1.0
 40
0.5758617009853121
 41
0.0
 42
6.283185307179586
  0
ELLIPSE
  5
221
330
71
100
AcDbEntity
  8
Visible (ANSI)
100
AcDbEllipse
 10
17.02181681966509
 20
13.27004952075351
 30
0.0
 11
-0.9600000000000001
 21
0.0
 31
0.0
210
0.0
220
0.0
230
1.0
 40
0.5758617009853121
 41
0.0
 42
6.283185307179586
  0
ELLIPSE
  5
222
330
71
100
AcDbEntity
  8
Visible Narrow (ANSI)
100
AcDbEllipse
 10
17.02181681966509
 20
13.04011439189154
 30
0.0
 11
0.9600000000000003
 21
0.0000000000000001
 31
0.0
210
0.0
220
0.0
230
1.0
 40
0.5758617009853121
 41
0.2094918820065866
 42
2.932100771583201
  0
LINE
  5
223
330
71
100
AcDbEntity
  8
Visible (ANSI)
100
AcDbLine
 10
14.83431681966509
 20
12.6568891771216
 30
0.0
 11
14.83431681966509
 21
12.84492501583539
 31
0.0
  0
LINE
  5
224
330
71
100
AcDbEntity
  8
Visible (ANSI)
100
AcDbLine
 10
19.20931681966509
 20
12.6568891771216
 30
0.0
 11
19.20931681966509
 21
12.84492501583539
 31
0.0
  0
LINE
  5
225
330
71
100
AcDbEntity
  8
Visible (ANSI)
100
AcDbLine
 10
18.15380337211117
 20
13.37834014915052
 30
0.0
 11
18.24637093904356
 21
13.0574579436445
 31
0.0
  0
LINE
  5
226
330
71
100
AcDbEntity
  8
Visible (ANSI)
100
AcDbLine
 10
15.88983026721901
 20
13.37834014915052
 30
0.0
 11
15.79726270028661
 21
13.0574579436445
 31
0.0
  0
SPLINE
  5
227
330
71
100
AcDbEntity
  8
Visible (ANSI)
100
AcDbSpline
210
0.0
220
0.0
230
1.0
 70
     8
 71
     3
 72
    24
 73
    20
 74
     0
 42
0.000000001
 43
0.0000000001
 40
1.272058517809921
 40
1.272058517809921
 40
1.272058517809921
 40
1.272058517809921
 40
1.397840471406786
 40
1.397840471406786
 40
1.64085554621486
 40
1.64085554621486
 40
1.892745814692275
 40
1.892745814692275
 40
2.157782188992997
 40
2.157782188992997
 40
2.431473305592713
 40
2.431473305592713
 40
2.7068428927739
 40
2.7068428927739
 40
2.976380057039073
 40
2.976380057039073
 40
3.233520605047332
 40
3.233520605047332
 40
3.440330462574471
 40
3.440330462574471
 40
3.440330462574471
 40
3.440330462574471
 10
17.93951574920466
 20
13.10775388036117
 30
0.0
 10
17.9275261776713
 20
13.12080293932905
 30
0.0
 10
17.91232908265999
 20
13.13532355164042
 30
0.0
 10
17.85781068133031
 20
13.18001018349759
 30
0.0
 10
17.8090697560305
 20
13.21200808597405
 30
0.0
 10
17.68704261545341
 20
13.27306317387396
 30
0.0
 10
17.61305041755473
 20
13.3019742634506
 30
0.0
 10
17.44442157498598
 20
13.3505035646428
 30
0.0
 10
17.34895597023052
 20
13.36958375385536
 30
0.0
 10
17.14685665340061
 20
13.39298309302006
 30
0.0
 10
17.0399832479537
 20
13.39681067205762
 30
0.0
 10
16.82877802821136
 20
13.38763755208517
 30
0.0
 10
16.72448744981562
 20
13.3745242034329
 30
0.0
 10
16.53285178713459
 20
13.33416014227205
 30
0.0
 10
16.44523299388498
 20
13.30718419941048
 30
0.0
 10
16.29772243012501
 20
13.24651691023707
 30
0.0
 10
16.23684085613746
 20
13.21316563440239
 30
0.0
 10
16.15234890380938
 20
13.15462804521955
 30
0.0
 10
16.12383106446986
 20
13.12920905694923
 30
0.0
 10
16.10411789012552
 20
13.10775388036117
 30
0.0
  0
ELLIPSE
  5
228
330
71
100
AcDbEntity
  8
Visible (ANSI)
100
AcDbEllipse
 10
18.16276005654419
 20
13.57643339861398
 30
0.0
 11
0.225
 21
-0.0000000000000134
 31
0.0
210
0.0
220
0.0
230
1.0
 40
0.5758617009853121
 41
0.7853981633979111
 42
2.604615032351526
  0
LINE
  5
229
330
71
100
AcDbEntity
  8
Visible (ANSI)
100
AcDbLine
 10
18.32185908231113
 20
13.66805243421727
 30
0.0
 11
18.42792509948914
 21
13.60697307714843
 31
0.0
  0
ELLIPSE
  5
22A
330
71
100
AcDbEntity
  8
Visible (ANSI)
100
AcDbEllipse
 10
18.26882607372219
 20
13.51535404154514
 30
0.0
 11
0.2250000000000002
 21
0.0
 31
0.0
210
0.0
220
0.0
230
1.0
 40
0.5758617009853121
 41
4.125522475556797
 42
7.068583470577177
  0
LINE
  5
22B
330
71
100
AcDbEntity
  8
Visible Narrow (ANSI)
100
AcDbLine
 10
18.42792509948914
 20
13.60697307714843
 30
0.0
 11
18.42792509948914
 21
13.42373500594185
 31
0.0
  0
LINE
  5
22C
330
71
100
AcDbEntity
  8
Visible (ANSI)
100
AcDbLine
 10
18.40849920479415
 20
13.4137729247
 30
0.0
 11
18.32185908231113
 21
13.46366565300663
 31
0.0
  0
LINE
  5
22D
330
71
100
AcDbEntity
  8
Visible Narrow (ANSI)
100
AcDbLine
 10
18.32185908231113
 20
13.66805243421727
 30
0.0
 11
18.32185908231113
 21
13.46366565300663
 31
0.0
  0
ELLIPSE
  5
22E
330
71
100
AcDbEntity
  8
Visible (ANSI)
100
AcDbEllipse
 10
18.16276005654419
 20
13.37204661740334
 30
0.0
 11
-0.2250000000000002
 21
-0.0000000000000134
 31
0.0
210
0.0
220
0.0
230
1.0
 40
0.5758617009853121
 41
3.926990816987146
 42
4.995696601311221
  0
DIMENSION
  5
22F
330
71
100
AcDbEntity
  8
Dimension (ANSI)
100
AcDbDimension
  2
*D9
 10
6.346985098832104
 20
10.94977622273916
 30
0.0
 11
12.19008890674951
 21
10.94977240356794
 31
0.0
 70
   163
  1
<>
 71
     5
 42
1.919999999999997
  3
Standard 0.000
100
AcDbDiametricDimension
 15
8.266985098831121
 25
10.94977428740402
 35
0.0
 40
0.0
1001
ACAD
1000
DSTYLE
1002
{
1070
   144
1040
1.000000000000001
1070
   172
1070
     1
1070
    73
1070
     1
1070
   289
1070
     2
1070
   271
1070
     3
1070
   147
1040
0.03
1070
    72
1070
     0
1070
    71
1070
     1
1070
   272
1070
     3
1070
    48
1040
0.000000001
1070
    47
1040
0.02
1002
}
1001
ACAD_DSTYLE_DIMRADIAL_EXTENSION
1070
   387
1070
     1
1070
   388
1040
0.0
1070
   390
1040
0.0
  0
DIMENSION
  5
2CE
330
71
100
AcDbEntity
  8
Dimension (ANSI)
100
AcDbDimension
  2
*D10
 10
10.2944738094135
 20
5.808823575573862
 30
0.0
 11
10.31264086354214
 21
6.974719103330724
 31
0.0
 70
   160
  1
<>
 71
     5
 42
0.25
  3
Standard 0.000
100
AcDbAlignedDimension
 13
9.4744850988302
 23
6.058823575573863
 33
0.0
 14
9.494485098830239
 24
5.808823575573863
 34
0.0
 50
90.0
100
AcDbRotatedDimension
1001
ACAD
1000
DSTYLE
1002
{
1070
   289
1070
     1
1070
   279
1070
     1
1070
    73
1070
     1
1070
    74
1070
     1
1070
   271
1070
     3
1070
   272
1070
     3
1070
    48
1040
0.0
1070
    47
1040
0.0
1002
}
  0
DIMENSION
  5
3CE
330
71
100
AcDbEntity
  8
Dimension (ANSI)
100
AcDbDimension
  2
*D11
 10
4.714808797214637
 20
6.558823575573863
 30
0.0
 11
4.702225052545244
 21
5.462828115547478
 31
0.0
 70
   160
  1
<>
 71
     5
 42
0.75
  3
Standard 0.00
100
AcDbAlignedDimension
 13
5.1194850988302
 23
5.808823575573863
 33
0.0
 14
6.159485098830201
 24
6.558823575573862
 34
0.0
 50
270.0
100
AcDbRotatedDimension
1001
ACAD
1000
DSTYLE
1002
{
1070
   289
1070
     2
1070
   279
1070
     1
1070
    73
1070
     1
1070
    74
1070
     1
1070
   271
1070
     2
1070
   272
1070
     2
1070
    48
1040
0.0
1070
    47
1040
0.0
1002
}
  0
DIMENSION
  5
4CC
330
71
100
AcDbEntity
  8
Dimension (ANSI)
100
AcDbDimension
  2
*D12
 10
8.555881233911781
 20
9.153831298879657
 30
0.0
 11
4.116722052258486
 21
13.91398355377395
 31
0.0
 70
   163
  1
<>
 71
     5
 42
4.375
  3
Standard 0.00
100
AcDbDiametricDimension
 15
6.058088963751444
 25
12.74571921126323
 35
0.0
 40
0.0
1001
ACAD
1000
DSTYLE
1002
{
1070
   144
1040
1.000000000000001
1070
   172
1070
     1
1070
    73
1070
     1
1070
   289
1070
     2
1070
   271
1070
     2
1070
   272
1070
     2
1070
    48
1040
0.0
1070
    47
1040
0.0
1002
}
1001
ACAD_DSTYLE_DIMRADIAL_EXTENSION
1070
   387
1070
     1
1070
   388
1040
0.0
1070
   390
1040
0.0
  0
DIMENSION
  5
575
330
71
100
AcDbEntity
  8
Dimension (ANSI)
100
AcDbDimension
  2
*D13
 10
8.670069638793432
 20
6.183823575573861
 30
0.0
 11
10.10770891799367
 21
7.461325884977365
 31
0.0
 70
   164
  1
<>
 71
     5
 42
0.125
  3
Standard 0.00
100
AcDbRadialDimension
 15
8.627669205708201
 25
6.066234446509203
 35
0.0
 40
0.0
1001
ACAD
1000
DSTYLE
1002
{
1070
    73
1070
     1
1070
   271
1070
     2
1070
   141
1040
0.0
1070
   272
1070
     2
1070
    48
1040
0.0
1070
    47
1040
0.0
1002
}
1001
ACAD_DSTYLE_DIMRADIAL_EXTENSION
1070
   387
1070
     1
1070
   388
1040
0.0
1070
   390
1040
0.0
  0
DIMENSION
  5
60C
330
71
100
AcDbEntity
  8
Dimension (ANSI)
100
AcDbDimension
  2
*D14
 10
8.987025572227624
 20
8.375310279727889
 30
0.0
 11
7.569177845445516
 21
8.378355796930364
 31
0.0
 70
   160
  1
<>
 71
     5
 42
3.369844211115663
  3
Standard 0.000
100
AcDbAlignedDimension
 13
5.62206688024443
 23
10.65339443597681
 33
0.0
 14
8.991903317418799
 24
10.64615607416609
 34
0.0
 50
179.8769296515582
100
AcDbRotatedDimension
1001
ACAD
1000
DSTYLE
1002
{
1070
   289
1070
     1
1070
    74
1070
     0
1070
   271
1070
     3
1070
   272
1070
     3
1070
    48
1040
0.0
1070
    47
1040
0.0
1002
}
  0
DIMENSION
  5
6F4
330
71
100
AcDbEntity
  8
Dimension (ANSI)
100
AcDbDimension
  2
*D15
 10
9.166124729390977
 20
12.85969347365863
 30
0.0
 11
9.17821378263442
 21
13.32734520281688
 31
0.0
 70
   160
  1
<>
 71
     5
 42
0.4499999999999976
  3
Standard 0.00
100
AcDbAlignedDimension
 13
7.385604279736969
 23
12.40969347365864
 33
0.0
 14
7.385604279736969
 24
12.85969347365863
 34
0.0
 50
90.0
100
AcDbRotatedDimension
1001
ACAD
1000
DSTYLE
1002
{
1070
   289
1070
     2
1070
   279
1070
     1
1070
    73
1070
     1
1070
    74
1070
     1
1070
   271
1070
     2
1070
   272
1070
     2
1070
    48
1040
0.0
1070
    47
1040
0.0
1002
}
  0
DIMENSION
  5
7F2
330
71
100
AcDbEntity
  8
Dimension (ANSI)
100
AcDbDimension
  2
*D16
 10
7.610604279736969
 20
13.88469347365864
 30
0.0
 11
9.077100922831418
 21
13.88469347365864
 31
0.0
 70
   160
  1
<>
 71
     5
 42
0.6000000000000006
  3
Standard 0.00
100
AcDbAlignedDimension
 13
7.010604279736969
 23
12.63469347365864
 33
0.0
 14
7.610604279736969
 24
12.63469347365864
 34
0.0
 50
180.0
100
AcDbRotatedDimension
1001
ACAD
1000
DSTYLE
1002
{
1070
   289
1070
     2
1070
    74
1070
     0
1070
   271
1070
     2
1070
   272
1070
     2
1070
    48
1040
0.0
1070
    47
1040
0.0
1002
}
  0
MTEXT
  5
8DA
330
71
100
AcDbEntity
  8
Symbol (ANSI)
100
AcDbMText
 10
11.13574584003452
 20
2.815146906627379
 30
0.0
 40
0.2000000063828596
 41
0.4006482954100361
 71
     1
 72
     1
  1
{Mill}
  7
Note Text (ANSI)
 73
     1
 44
1.0
1001
ACAD
1000
MTEXTBEGIN
1070
    73
1070
     1
1070
    44
1040
1.0
1070
    74
1070
     0
1000
MTEXTEND
  0
ENDSEC
  0
SECTION
  2
OBJECTS
  0
DICTIONARY
  5
C
330
0
100
AcDbDictionary
281
     1
  3
ACAD_CIP_PREVIOUS_PRODUCT_INFO
350
8DE
  3
ACAD_COLOR
350
63
  3
ACAD_DETAILVIEWSTYLE
350
6B
  3
ACAD_GROUP
350
D
  3
ACAD_IMAGE_DICT
350
172
  3
ACAD_IMAGE_VARS
350
8DB
  3
ACAD_LAYOUT
350
62
  3
ACAD_MATERIAL
350
10
  3
ACAD_MLEADERSTYLE
350
66
  3
ACAD_MLINESTYLE
350
5F
  3
ACAD_PLOTSETTINGS
350
61
  3
ACAD_PLOTSTYLENAME
350
E
  3
ACAD_SCALELIST
350
42
  3
ACAD_SECTIONVIEWSTYLE
350
68
  3
ACAD_TABLESTYLE
350
64
  3
ACAD_VISUALSTYLE
350
29
  3
ACDB_RECOMPOSE_DATA
350
946
  3
AcDbVariableDictionary
350
8DF
  3
DWGPROPS
350
947
  0
DICTIONARY
  5
8DC
330
71
100
AcDbDictionary
280
     1
281
     1
  3
ACAD_SORTENTS
360
8DD
  0
IMAGEDEF_REACTOR
  5
174
330
171
100
AcDbRasterImageDefReactor
 90
        2
330
171
  0
DICTIONARY
  5
8F2
330
1B8
100
AcDbDictionary
280
     1
281
     1
  3
ACAD_MLATT
360
8F4
  3
ACAD_XREC_ROUNDTRIP
360
8F3
  0
DICTIONARY
  5
8F5
330
1BB
100
AcDbDictionary
280
     1
281
     1
  3
ACAD_MLATT
360
8F7
  3
ACAD_XREC_ROUNDTRIP
360
8F6
  0
DICTIONARY
  5
8F8
330
1BC
100
AcDbDictionary
280
     1
281
     1
  3
ACAD_MLATT
360
8FA
  3
ACAD_XREC_ROUNDTRIP
360
8F9
  0
DICTIONARY
  5
8FB
330
1BE
100
AcDbDictionary
280
     1
281
     1
  3
ACAD_MLATT
360
8FD
  3
ACAD_XREC_ROUNDTRIP
360
8FC
  0
DICTIONARY
  5
8FE
330
1BF
100
AcDbDictionary
280
     1
281
     1
  3
ACAD_MLATT
360
900
  3
ACAD_XREC_ROUNDTRIP
360
8FF
  0
DICTIONARY
  5
901
330
1C0
100
AcDbDictionary
280
     1
281
     1
  3
ACAD_MLATT
360
903
  3
ACAD_XREC_ROUNDTRIP
360
902
  0
DICTIONARY
  5
904
330
1C1
100
AcDbDictionary
280
     1
281
     1
  3
ACAD_MLATT
360
906
  3
ACAD_XREC_ROUNDTRIP
360
905
  0
DICTIONARY
  5
907
330
1C2
100
AcDbDictionary
280
     1
281
     1
  3
ACAD_MLATT
360
909
  3
ACAD_XREC_ROUNDTRIP
360
908
  0
DICTIONARY
  5
90A
330
1C3
100
AcDbDictionary
280
     1
281
     1
  3
ACAD_MLATT
360
90C
  3
ACAD_XREC_ROUNDTRIP
360
90B
  0
DICTIONARY
  5
90D
330
1C4
100
AcDbDictionary
280
     1
281
     1
  3
ACAD_MLATT
360
90F
  3
ACAD_XREC_ROUNDTRIP
360
90E
  0
DICTIONARY
  5
910
330
1C5
100
AcDbDictionary
280
     1
281
     1
  3
ACAD_MLATT
360
912
  3
ACAD_XREC_ROUNDTRIP
360
911
  0
DICTIONARY
  5
913
330
1C6
100
AcDbDictionary
280
     1
281
     1
  3
ACAD_MLATT
360
915
  3
ACAD_XREC_ROUNDTRIP
360
914
  0
DICTIONARY
  5
916
330
1C7
100
AcDbDictionary
280
     1
281
     1
  3
ACAD_MLATT
360
918
  3
ACAD_XREC_ROUNDTRIP
360
917
  0
DICTIONARY
  5
919
330
1C8
100
AcDbDictionary
280
     1
281
     1
  3
ACAD_MLATT
360
91B
  3
ACAD_XREC_ROUNDTRIP
360
91A
  0
DICTIONARY
  5
987
330
2CB
100
AcDbDictionary
280
     1
281
     1
  3
ACAD_MTEXT_RT
360
988
  0
DICTIONARY
  5
989
330
572
100
AcDbDictionary
280
     1
281
     1
  3
ACAD_MTEXT_RT
360
98A
  0
DICTIONARY
  5
91C
330
1CB
100
AcDbDictionary
280
     1
281
     1
  3
ACAD_MLATT
360
91E
  3
ACAD_XREC_ROUNDTRIP
360
91D
  0
DICTIONARY
  5
91F
330
1CC
100
AcDbDictionary
280
     1
281
     1
  3
ACAD_MLATT
360
921
  3
ACAD_XREC_ROUNDTRIP
360
920
  0
DICTIONARY
  5
922
330
1CD
100
AcDbDictionary
280
     1
281
     1
  3
ACAD_MLATT
360
924
  3
ACAD_XREC_ROUNDTRIP
360
923
  0
DICTIONARY
  5
925
330
1CE
100
AcDbDictionary
280
     1
281
     1
  3
ACAD_MLATT
360
927
  3
ACAD_XREC_ROUNDTRIP
360
926
  0
DICTIONARY
  5
928
330
1CF
100
AcDbDictionary
280
     1
281
     1
  3
ACAD_MLATT
360
92A
  3
ACAD_XREC_ROUNDTRIP
360
929
  0
DICTIONARY
  5
92B
330
1D0
100
AcDbDictionary
280
     1
281
     1
  3
ACAD_MLATT
360
92D
  3
ACAD_XREC_ROUNDTRIP
360
92C
  0
DICTIONARY
  5
92E
330
1D1
100
AcDbDictionary
280
     1
281
     1
  3
ACAD_MLATT
360
930
  3
ACAD_XREC_ROUNDTRIP
360
92F
  0
DICTIONARY
  5
931
330
1D2
100
AcDbDictionary
280
     1
281
     1
  3
ACAD_MLATT
360
933
  3
ACAD_XREC_ROUNDTRIP
360
932
  0
DICTIONARY
  5
934
330
1D3
100
AcDbDictionary
280
     1
281
     1
  3
ACAD_MLATT
360
936
  3
ACAD_XREC_ROUNDTRIP
360
935
  0
DICTIONARY
  5
937
330
1D4
100
AcDbDictionary
280
     1
281
     1
  3
ACAD_MLATT
360
939
  3
ACAD_XREC_ROUNDTRIP
360
938
  0
DICTIONARY
  5
93A
330
1D5
100
AcDbDictionary
280
     1
281
     1
  3
ACAD_MLATT
360
93C
  3
ACAD_XREC_ROUNDTRIP
360
93B
  0
DICTIONARY
  5
93D
330
1D6
100
AcDbDictionary
280
     1
281
     1
  3
ACAD_MLATT
360
93F
  3
ACAD_XREC_ROUNDTRIP
360
93E
  0
DICTIONARY
  5
940
330
1D7
100
AcDbDictionary
280
     1
281
     1
  3
ACAD_MLATT
360
942
  3
ACAD_XREC_ROUNDTRIP
360
941
  0
DICTIONARY
  5
943
330
1D8
100
AcDbDictionary
280
     1
281
     1
  3
ACAD_MLATT
360
945
  3
ACAD_XREC_ROUNDTRIP
360
944
  0
XRECORD
  5
8DE
102
{ACAD_REACTORS
330
C
102
}
330
C
100
AcDbXrecord
280
     1
300
INVPROSA
300
2013
300
85962PDSP_2013_0F
  0
DICTIONARY
  5
63
102
{ACAD_REACTORS
330
C
102
}
330
C
100
AcDbDictionary
281
     1
  0
DICTIONARY
  5
6B
102
{ACAD_REACTORS
330
C
102
}
330
C
100
AcDbDictionary
281
     1
  3
Imperial24
350
6C
  0
DICTIONARY
  5
D
102
{ACAD_REACTORS
330
C
102
}
330
C
100
AcDbDictionary
281
     1
  0
DICTIONARY
  5
172
102
{ACAD_REACTORS
330
C
102
}
330
C
100
AcDbDictionary
281
     1
  3
OAImg-4149104
350
173
  0
RASTERVARIABLES
  5
8DB
102
{ACAD_REACTORS
330
C
102
}
330
C
100
AcDbRasterVariables
 90
        0
 70
     0
 71
     1
 72
     5
  0
DICTIONARY
  5
62
102
{ACAD_REACTORS
330
C
102
}
330
C
100
AcDbDictionary
281
     1
  3
Layout1
350
70
  3
Layout2
350
78
  3
Model
350
74
  0
DICTIONARY
  5
10
102
{ACAD_REACTORS
330
C
102
}
330
C
100
AcDbDictionary
281
     1
  3
ByBlock
350
19
  3
ByLayer
350
11
  3
Global
350
21
  0
DICTIONARY
  5
66
102
{ACAD_REACTORS
330
C
102
}
330
C
100
AcDbDictionary
281
     1
  3
Standard
350
67
  0
DICTIONARY
  5
5F
102
{ACAD_REACTORS
330
C
102
}
330
C
100
AcDbDictionary
281
     1
  3
Standard
350
60
  0
DICTIONARY
  5
61
102
{ACAD_REACTORS
330
C
102
}
330
C
100
AcDbDictionary
281
     1
  0
ACDBDICTIONARYWDFLT
  5
E
102
{ACAD_REACTORS
330
C
102
}
330
C
100
AcDbDictionary
281
     1
  3
Normal
350
F
100
AcDbDictionaryWithDefault
340
F
  0
DICTIONARY
  5
42
102
{ACAD_REACTORS
330
C
102
}
330
C
100
AcDbDictionary
281
     1
  3
A0
350
43
  3
A1
350
44
  3
A2
350
45
  3
A3
350
46
  3
A4
350
47
  3
A5
350
48
  3
A6
350
49
  3
A7
350
4A
  3
A8
350
4B
  3
A9
350
4C
  3
B0
350
4D
  3
B1
350
4E
  3
B2
350
4F
  3
B3
350
50
  3
B4
350
51
  3
B5
350
52
  3
B6
350
53
  0
DICTIONARY
  5
68
102
{ACAD_REACTORS
330
C
102
}
330
C
100
AcDbDictionary
281
     1
  3
Imperial24
350
6A
  0
DICTIONARY
  5
64
102
{ACAD_REACTORS
330
C
102
}
330
C
100
AcDbDictionary
281
     1
  3
Standard
350
65
  0
DICTIONARY
  5
29
102
{ACAD_REACTORS
330
C
102
}
330
C
100
AcDbDictionary
281
     1
  3
2dWireframe
350
2F
  3
Basic
350
2E
  3
Brighten
350
35
  3
ColorChange
350
39
  3
Conceptual
350
32
  3
Dim
350
34
  3
EdgeColorOff
350
41
  3
Facepattern
350
38
  3
Flat
350
2A
  3
FlatWithEdges
350
2B
  3
Gouraud
350
2C
  3
GouraudWithEdges
350
2D
  3
Hidden
350
31
  3
JitterOff
350
3F
  3
Linepattern
350
37
  3
OverhangOff
350
40
  3
Realistic
350
33
  3
Shaded
350
3E
  3
Shaded with edges
350
3D
  3
Shades of Gray
350
3A
  3
Sketchy
350
3B
  3
Thicken
350
36
  3
Wireframe
350
30
  3
X-Ray
350
3C
  0
XRECORD
  5
946
102
{ACAD_REACTORS
330
C
102
}
330
C
100
AcDbXrecord
280
     1
 90
        1
330
65
330
1B8
330
1BB
330
1BC
330
1BE
330
1BF
330
1C0
330
1C1
330
1C2
330
1C3
330
1C4
330
1C5
330
1C6
330
1C7
330
1C8
330
1CB
330
1CC
330
1CD
330
1CE
330
1CF
330
1D0
330
1D1
330
1D2
330
1D3
330
1D4
330
1D5
330
1D6
330
1D7
330
1D8
330
22F
330
3CE
330
4CC
330
6F4
330
7F2
  0
DICTIONARY
  5
8DF
102
{ACAD_REACTORS
330
C
102
}
330
C
100
AcDbDictionary
281
     1
  3
CANNOSCALE
350
8E5
  3
CMLEADERSTYLE
350
8E1
  3
CTABLESTYLE
350
8E0
  3
CVIEWDETAILSTYLE
350
8E2
  3
CVIEWSECTIONSTYLE
350
8E3
  3
DIMASSOC
350
8EC
  3
HIDETEXT
350
8EB
  3
INDEXCTL
350
8EA
  3
LAYEREVAL
350
8E7
  3
LAYERNOTIFY
350
8E8
  3
LIGHTINGUNITS
350
8E6
  3
MSLTSCALE
350
8E4
  3
SORTENTS
350
8E9
  3
XCLIPFRAME
350
8ED
  0
XRECORD
  5
947
102
{ACAD_REACTORS
330
C
102
}
330
C
100
AcDbXrecord
280
     1
  1
DWGPROPS COOKIE
  2

  3

  4
kturdo
  6

  7

  8

  9

300
Manager=
301
Company=
302
Category=
303
Part Number=1623HD
304
Description=
305
Project=
306
Designer=kturdo
307
Engineer=
308
Authority=
309
Cost Center=
 40
0.00001375
 41
2456363.442460984
 42
2456363.442460984
  1

 90
       19
300
Vendor=
300
User Status=
300
Design Status=WorkInProgress
300
Checked by=
300
Engr Approved by=
300
Mfg Approved by=
300
AssyMaterial=304 Stainless
300
CustName= 
300
Finish=#4 Satin
  0
SORTENTSTABLE
  5
8DD
102
{ACAD_REACTORS
330
8DC
102
}
330
8DC
100
AcDbSortentsTable
330
71
331
22C
  5
22C
331
21B
  5
21B
331
20A
  5
20A
331
1F9
  5
1F9
331
1E8
  5
1E8
331
1DE
  5
1DE
331
8DA
  5
8DA
331
22D
  5
22D
331
21C
  5
21C
331
20B
  5
20B
331
1FA
  5
1FA
331
1E9
  5
1E9
331
1DF
  5
1DF
331
3CE
  5
3CE
331
22E
  5
22E
331
21D
  5
21D
331
20C
  5
20C
331
1FB
  5
1FB
331
1EA
  5
1EA
331
575
  5
575
331
22F
  5
22F
331
21E
  5
21E
331
20D
  5
20D
331
1FC
  5
1FC
331
1EB
  5
1EB
331
21F
  5
21F
331
20E
  5
20E
331
1FD
  5
1FD
331
1EC
  5
1EC
331
220
  5
220
331
20F
  5
20F
331
1FE
  5
1FE
331
1ED
  5
1ED
331
16D
  5
1C9
331
221
  5
221
331
210
  5
210
331
1FF
  5
1FF
331
1EE
  5
1EE
331
222
  5
222
331
211
  5
211
331
200
  5
200
331
1EF
  5
1EF
331
60C
  5
60C
331
223
  5
223
331
212
  5
212
331
201
  5
201
331
1F0
  5
1F0
331
224
  5
224
331
213
  5
213
331
202
  5
202
331
1F1
  5
1F1
331
1E0
  5
1E0
331
225
  5
225
331
214
  5
214
331
203
  5
203
331
1F2
  5
1F2
331
1E1
  5
1E1
331
7F2
  5
7F2
331
226
  5
226
331
215
  5
215
331
204
  5
204
331
1F3
  5
1F3
331
1E2
  5
1E2
331
227
  5
227
331
216
  5
216
331
205
  5
205
331
1F4
  5
1F4
331
1E3
  5
1E3
331
1D9
  5
1D9
331
1C9
  5
16D
331
228
  5
228
331
217
  5
217
331
206
  5
206
331
1F5
  5
1F5
331
1E4
  5
1E4
331
1DA
  5
1DA
331
229
  5
229
331
218
  5
218
331
207
  5
207
331
1F6
  5
1F6
331
1E5
  5
1E5
331
1DB
  5
1DB
331
6F4
  5
6F4
331
2CE
  5
2CE
331
4CC
  5
4CC
331
22A
  5
22A
331
219
  5
219
331
208
  5
208
331
1F7
  5
1F7
331
1E6
  5
1E6
331
1DC
  5
1DC
331
22B
  5
22B
331
21A
  5
21A
331
209
  5
209
331
1F8
  5
1F8
331
1E7
  5
1E7
331
1DD
  5
1DD
  0
XRECORD
  5
8F4
102
{ACAD_REACTORS
330
8F2
102
}
330
8F2
100
AcDbXrecord
280
     1
 70
     4
 70
     0
 70
     0
 40
1.0
  2
AUTHOR
  1
Embedded Object
 10
3.003592083170435
 20
1.850838461216546
 30
0.0
 40
0.0799999990331845
 41
0.9745379840428526
 46
0.0
 71
     5
 72
     5
  1
kturdo
  7
Text Style40
 73
     1
 44
1.0
  0
XRECORD
  5
8F3
102
{ACAD_REACTORS
330
8F2
102
}
330
8F2
100
AcDbXrecord
280
     1
102
ACAD_MATT_HEIGHT
140
0.0799999990331845
  0
XRECORD
  5
8F7
102
{ACAD_REACTORS
330
8F5
102
}
330
8F5
100
AcDbXrecord
280
     1
 70
     4
 70
     0
 70
     0
 40
1.0
  2
DESCRIPTION
  1
Embedded Object
 10
5.029534648554792
 20
2.550283459080093
 30
0.0
 40
0.0799999990331845
 41
4.113953087294657
 46
0.0
 71
     5
 72
     5
  1
Flange, ST, Heavy, 1/4 in Thick, For 1-1/2 in Pipe (1.90 in Dia) 4 Oval Mount Holes
  7
Text Style40
 73
     1
 44
1.0
  0
XRECORD
  5
8F6
102
{ACAD_REACTORS
330
8F5
102
}
330
8F5
100
AcDbXrecord
280
     1
102
ACAD_MATT_HEIGHT
140
0.0799999990331845
  0
XRECORD
  5
8FA
102
{ACAD_REACTORS
330
8F8
102
}
330
8F8
100
AcDbXrecord
280
     1
 70
     4
 70
     0
 70
     0
 40
1.0
  2
CREATION_DATE
  1
Embedded Object
 10
2.999691999917022
 20
2.094073563706722
 30
0.0
 40
0.0799999990331845
 41
0.9787597075529205
 46
0.0
 71
     5
 72
     5
  1
2/14/2013
  7
Text Style40
 73
     1
 44
1.0
  0
XRECORD
  5
8F9
102
{ACAD_REACTORS
330
8F8
102
}
330
8F8
100
AcDbXrecord
280
     1
102
ACAD_MATT_HEIGHT
140
0.0799999990331845
  0
XRECORD
  5
8FD
102
{ACAD_REACTORS
330
8FB
102
}
330
8FB
100
AcDbXrecord
280
     1
 70
     4
 70
     0
 70
     0
 40
1.0
  2
Sheet_Size
  1
Embedded Object
 10
2.157528658048732
 20
1.645799695417457
 30
0.0
 40
0.1249999981226883
 41
0.6334988115627893
 46
0.0
 71
     5
 72
     5
  1
A
  7
Text Style39
 73
     1
 44
1.0
  0
XRECORD
  5
8FC
102
{ACAD_REACTORS
330
8FB
102
}
330
8FB
100
AcDbXrecord
280
     1
102
ACAD_MATT_HEIGHT
140
0.1249999981226883
  0
XRECORD
  5
900
102
{ACAD_REACTORS
330
8FE
102
}
330
8FE
100
AcDbXrecord
280
     1
 70
     4
 70
     0
 70
     0
 40
1.0
  2
MASS\P2;
  1
Embedded Object
 10
2.06362824948732
 20
2.001215195405613
 30
0.0
 40
0.0799999990331845
 41
0.866510016693248
 46
0.0
 71
     5
 72
     5
  1
0.95 lbmass
  7
Text Style40
 73
     1
 44
1.0
  0
XRECORD
  5
8FF
102
{ACAD_REACTORS
330
8FE
102
}
330
8FE
100
AcDbXrecord
280
     1
102
ACAD_MATT_HEIGHT
140
0.0799999990331845
  0
XRECORD
  5
903
102
{ACAD_REACTORS
330
901
102
}
330
901
100
AcDbXrecord
280
     1
 70
     4
 70
     0
 70
     0
 40
1.0
  2
PART_NUMBER
  1
Embedded Object
 10
5.929698188715724
 20
1.565869633109507
 30
0.0
 40
0.1249999981226883
 41
1.666418576772041
 46
0.0
 71
     5
 72
     5
  1
1623HD
  7
Text Style39
 73
     1
 44
1.0
  0
XRECORD
  5
902
102
{ACAD_REACTORS
330
901
102
}
330
901
100
AcDbXrecord
280
     1
102
ACAD_MATT_HEIGHT
140
0.1249999981226883
  0
XRECORD
  5
906
102
{ACAD_REACTORS
330
904
102
}
330
904
100
AcDbXrecord
280
     1
 70
     4
 70
     0
 70
     0
 40
1.0
  2
REVISION_NUMBER
  1
Embedded Object
 10
6.949747045265439
 20
1.560799575226546
 30
0.0
 40
0.1249999981226883
 41
0.2881140652094519
 46
0.0
 71
     5
 72
     5
  1
-
  7
Text Style39
 73
     1
 44
1.0
  0
XRECORD
  5
905
102
{ACAD_REACTORS
330
904
102
}
330
904
100
AcDbXrecord
280
     1
102
ACAD_MATT_HEIGHT
140
0.1249999981226883
  0
XRECORD
  5
909
102
{ACAD_REACTORS
330
907
102
}
330
907
100
AcDbXrecord
280
     1
 70
     4
 70
     0
 70
     0
 40
1.0
  2
Finish
  1
Embedded Object
 10
2.063443822775957
 20
2.404273669458851
 30
0.0
 40
0.0799999990331845
 41
0.8573703698519814
 46
0.0
 71
     5
 72
     5
  1

  7
Text Style40
 73
     1
 44
1.0
  0
XRECORD
  5
908
102
{ACAD_REACTORS
330
907
102
}
330
907
100
AcDbXrecord
280
     1
102
ACAD_MATT_HEIGHT
140
0.0799999990331845
  0
XRECORD
  5
90C
102
{ACAD_REACTORS
330
90A
102
}
330
90A
100
AcDbXrecord
280
     1
 70
     4
 70
     0
 70
     0
 40
1.0
  2
MATERIAL
  1
Embedded Object
 10
3.149667775559268
 20
2.314121464775433
 30
0.0
 40
0.0799999990331845
 41
1.291877677535143
 46
0.0
 71
     5
 72
     5
  1
Steel
  7
Text Style40
 73
     1
 44
1.0
  0
XRECORD
  5
90B
102
{ACAD_REACTORS
330
90A
102
}
330
90A
100
AcDbXrecord
280
     1
102
ACAD_MATT_HEIGHT
140
0.0799999990331845
  0
XRECORD
  5
90F
102
{ACAD_REACTORS
330
90D
102
}
330
90D
100
AcDbXrecord
280
     1
 70
     4
 70
     0
 70
     0
 40
1.0
  2
AUTHOR
  1
Embedded Object
 10
5.458568844307306
 20
2.320288139785994
 30
0.0
 40
0.1000000031914298
 41
3.27556519392549
 46
0.0
 71
     5
 72
     5
  1
.25" Thick Coiled Steel
  7
Note Text (ANSI)
 73
     1
 44
1.0
  0
XRECORD
  5
90E
102
{ACAD_REACTORS
330
90D
102
}
330
90D
100
AcDbXrecord
280
     1
102
ACAD_MATT_HEIGHT
140
0.1000000031914298
  0
XRECORD
  5
912
102
{ACAD_REACTORS
330
910
102
}
330
910
100
AcDbXrecord
280
     1
 70
     4
 70
     0
 70
     0
 40
1.0
  2
ToolNumber
  1
Embedded Object
 10
1.376450789417299
 20
1.596069261856917
 30
0.0
 40
0.1000000031914298
 41
0.74397132293299
 46
0.0
 71
     5
 72
     5
  1

  7
Note Text (ANSI)
 73
     1
 44
1.0
  0
XRECORD
  5
911
102
{ACAD_REACTORS
330
910
102
}
330
910
100
AcDbXrecord
280
     1
102
ACAD_MATT_HEIGHT
140
0.1000000031914298
  0
XRECORD
  5
915
102
{ACAD_REACTORS
330
913
102
}
330
913
100
AcDbXrecord
280
     1
 70
     4
 70
     0
 70
     0
 40
1.0
  2
DevLength
  1
Embedded Object
 10
1.371719385710888
 20
2.002751885343146
 30
0.0
 40
0.1000000031914298
 41
0.7439713229329897
 46
0.0
 71
     5
 72
     5
  1

  7
Note Text (ANSI)
 73
     1
 44
1.0
  0
XRECORD
  5
914
102
{ACAD_REACTORS
330
913
102
}
330
913
100
AcDbXrecord
280
     1
102
ACAD_MATT_HEIGHT
140
0.1000000031914298
  0
XRECORD
  5
918
102
{ACAD_REACTORS
330
916
102
}
330
916
100
AcDbXrecord
280
     1
 70
     4
 70
     0
 70
     0
 40
1.0
  2
CutLength
  1
Embedded Object
 10
1.37409370326175
 20
2.395361958298697
 30
0.0
 40
0.1000000031914298
 41
0.7411938454858573
 46
0.0
 71
     5
 72
     5
  1

  7
Note Text (ANSI)
 73
     1
 44
1.0
  0
XRECORD
  5
917
102
{ACAD_REACTORS
330
916
102
}
330
916
100
AcDbXrecord
280
     1
102
ACAD_MATT_HEIGHT
140
0.1000000031914298
  0
XRECORD
  5
91B
102
{ACAD_REACTORS
330
919
102
}
330
919
100
AcDbXrecord
280
     1
 70
     4
 70
     0
 70
     0
 40
1.0
  2
PART_NUMBER
  1
Embedded Object
 10
3.276664011282029
 20
1.564035621514915
 30
0.0
 40
0.1249999981226883
 41
1.544984095880615
 46
0.0
 71
     5
 72
     5
  1
1623HD
  7
Text Style39
 73
     1
 44
1.0
  0
XRECORD
  5
91A
102
{ACAD_REACTORS
330
919
102
}
330
919
100
AcDbXrecord
280
     1
102
ACAD_MATT_HEIGHT
140
0.1249999981226883
  0
XRECORD
  5
988
102
{ACAD_REACTORS
330
987
102
}
330
987
100
AcDbXrecord
280
     1
 40
298483.0
  1
\A1;\U+22051.920\S+0.020^ -0.000; {\o\l\H0.480000;[}\U+220548.77\S+0.51^ -0.00;{\o\l\H0.480000;]}
  0
XRECORD
  5
98A
102
{ACAD_REACTORS
330
989
102
}
330
989
100
AcDbXrecord
280
     1
 40
26602.0
  1
\A1;\U+22054.38 [\U+2205111.1]
  0
XRECORD
  5
91E
102
{ACAD_REACTORS
330
91C
102
}
330
91C
100
AcDbXrecord
280
     1
 70
     2
 70
     0
 70
     0
 40
1.0
  2
AUTHOR
  1
Embedded Object
 10
13.04718416634087
 20
1.561676922433092
 30
0.0
 40
0.159999998066369
 41
1.949075968085705
 46
0.0
 71
     5
 72
     5
  1
kturdo
  7
Text Style40
 73
     1
 44
1.0
  0
XRECORD
  5
91D
102
{ACAD_REACTORS
330
91C
102
}
330
91C
100
AcDbXrecord
280
     1
102
ACAD_MATT_HEIGHT
140
0.159999998066369
  0
XRECORD
  5
921
102
{ACAD_REACTORS
330
91F
102
}
330
91F
100
AcDbXrecord
280
     1
 70
     2
 70
     0
 70
     0
 40
1.0
  2
DESCRIPTION
  1
Embedded Object
 10
17.09906929710959
 20
2.960566918160186
 30
0.0
 40
0.159999998066369
 41
8.227906174589314
 46
0.0
 71
     5
 72
     5
  1
Flange, ST, Heavy, 1/4 in Thick, For 1-1/2 in Pipe (1.90 in Dia) 4 Oval Mount Holes
  7
Text Style40
 73
     1
 44
1.0
  0
XRECORD
  5
920
102
{ACAD_REACTORS
330
91F
102
}
330
91F
100
AcDbXrecord
280
     1
102
ACAD_MATT_HEIGHT
140
0.159999998066369
  0
XRECORD
  5
924
102
{ACAD_REACTORS
330
922
102
}
330
922
100
AcDbXrecord
280
     1
 70
     2
 70
     0
 70
     0
 40
1.0
  2
CREATION_DATE
  1
Embedded Object
 10
13.03938399983404
 20
2.048147127413444
 30
0.0
 40
0.159999998066369
 41
1.95751941510584
 46
0.0
 71
     5
 72
     5
  1
2/14/2013
  7
Text Style40
 73
     1
 44
1.0
  0
XRECORD
  5
923
102
{ACAD_REACTORS
330
922
102
}
330
922
100
AcDbXrecord
280
     1
102
ACAD_MATT_HEIGHT
140
0.159999998066369
  0
XRECORD
  5
927
102
{ACAD_REACTORS
330
925
102
}
330
925
100
AcDbXrecord
280
     1
 70
     2
 70
     0
 70
     0
 40
1.0
  2
Sheet_Size
  1
Embedded Object
 10
11.35505731609746
 20
1.151599390834913
 30
0.0
 40
0.2499999962453767
 41
1.266997623125578
 46
0.0
 71
     5
 72
     5
  1
A
  7
Text Style39
 73
     1
 44
1.0
  0
XRECORD
  5
926
102
{ACAD_REACTORS
330
925
102
}
330
925
100
AcDbXrecord
280
     1
102
ACAD_MATT_HEIGHT
140
0.2499999962453767
  0
XRECORD
  5
92A
102
{ACAD_REACTORS
330
928
102
}
330
928
100
AcDbXrecord
280
     1
 70
     2
 70
     0
 70
     0
 40
1.0
  2
MASS\P2;
  1
Embedded Object
 10
11.16725649897464
 20
1.862430390811227
 30
0.0
 40
0.159999998066369
 41
1.733020033386496
 46
0.0
 71
     5
 72
     5
  1
0.95 lbmass
  7
Text Style40
 73
     1
 44
1.0
  0
XRECORD
  5
929
102
{ACAD_REACTORS
330
928
102
}
330
928
100
AcDbXrecord
280
     1
102
ACAD_MATT_HEIGHT
140
0.159999998066369
  0
XRECORD
  5
92D
102
{ACAD_REACTORS
330
92B
102
}
330
92B
100
AcDbXrecord
280
     1
 70
     2
 70
     0
 70
     0
 40
1.0
  2
PART_NUMBER
  1
Embedded Object
 10
18.89939637743145
 20
0.9917392662190136
 30
0.0
 40
0.2499999962453767
 41
3.332837153544083
 46
0.0
 71
     5
 72
     5
  1
1623HD
  7
Text Style39
 73
     1
 44
1.0
  0
XRECORD
  5
92C
102
{ACAD_REACTORS
330
92B
102
}
330
92B
100
AcDbXrecord
280
     1
102
ACAD_MATT_HEIGHT
140
0.2499999962453767
  0
XRECORD
  5
930
102
{ACAD_REACTORS
330
92E
102
}
330
92E
100
AcDbXrecord
280
     1
 70
     2
 70
     0
 70
     0
 40
1.0
  2
REVISION_NUMBER
  1
Embedded Object
 10
20.93949409053088
 20
0.9815991504530922
 30
0.0
 40
0.2499999962453767
 41
0.5762281304189039
 46
0.0
 71
     5
 72
     5
  1
-
  7
Text Style39
 73
     1
 44
1.0
  0
XRECORD
  5
92F
102
{ACAD_REACTORS
330
92E
102
}
330
92E
100
AcDbXrecord
280
     1
102
ACAD_MATT_HEIGHT
140
0.2499999962453767
  0
XRECORD
  5
933
102
{ACAD_REACTORS
330
931
102
}
330
931
100
AcDbXrecord
280
     1
 70
     2
 70
     0
 70
     0
 40
1.0
  2
Finish
  1
Embedded Object
 10
11.16688764555191
 20
2.668547338917703
 30
0.0
 40
0.159999998066369
 41
1.714740739703962
 46
0.0
 71
     5
 72
     5
  1

  7
Text Style40
 73
     1
 44
1.0
  0
XRECORD
  5
932
102
{ACAD_REACTORS
330
931
102
}
330
931
100
AcDbXrecord
280
     1
102
ACAD_MATT_HEIGHT
140
0.159999998066369
  0
XRECORD
  5
936
102
{ACAD_REACTORS
330
934
102
}
330
934
100
AcDbXrecord
280
     1
 70
     2
 70
     0
 70
     0
 40
1.0
  2
MATERIAL
  1
Embedded Object
 10
13.33933555111854
 20
2.488242929550867
 30
0.0
 40
0.159999998066369
 41
2.583755355070286
 46
0.0
 71
     5
 72
     5
  1
Steel
  7
Text Style40
 73
     1
 44
1.0
  0
XRECORD
  5
935
102
{ACAD_REACTORS
330
934
102
}
330
934
100
AcDbXrecord
280
     1
102
ACAD_MATT_HEIGHT
140
0.159999998066369
  0
XRECORD
  5
939
102
{ACAD_REACTORS
330
937
102
}
330
937
100
AcDbXrecord
280
     1
 70
     2
 70
     0
 70
     0
 40
1.0
  2
AUTHOR
  1
Embedded Object
 10
17.95713768861461
 20
2.500576279571987
 30
0.0
 40
0.2000000063828596
 41
6.551130387850981
 46
0.0
 71
     5
 72
     5
  1
.25" Thick Coiled Steel
  7
Note Text (ANSI)
 73
     1
 44
1.0
  0
XRECORD
  5
938
102
{ACAD_REACTORS
330
937
102
}
330
937
100
AcDbXrecord
280
     1
102
ACAD_MATT_HEIGHT
140
0.2000000063828596
  0
XRECORD
  5
93C
102
{ACAD_REACTORS
330
93A
102
}
330
93A
100
AcDbXrecord
280
     1
 70
     2
 70
     0
 70
     0
 40
1.0
  2
ToolNumber
  1
Embedded Object
 10
9.7929015788346
 20
1.052138523713835
 30
0.0
 40
0.2000000063828596
 41
1.487942645865979
 46
0.0
 71
     5
 72
     5
  1

  7
Note Text (ANSI)
 73
     1
 44
1.0
  0
XRECORD
  5
93B
102
{ACAD_REACTORS
330
93A
102
}
330
93A
100
AcDbXrecord
280
     1
102
ACAD_MATT_HEIGHT
140
0.2000000063828596
  0
XRECORD
  5
93F
102
{ACAD_REACTORS
330
93D
102
}
330
93D
100
AcDbXrecord
280
     1
 70
     2
 70
     0
 70
     0
 40
1.0
  2
DevLength
  1
Embedded Object
 10
9.78343877142178
 20
1.865503770686293
 30
0.0
 40
0.2000000063828596
 41
1.487942645865979
 46
0.0
 71
     5
 72
     5
  1

  7
Note Text (ANSI)
 73
     1
 44
1.0
  0
XRECORD
  5
93E
102
{ACAD_REACTORS
330
93D
102
}
330
93D
100
AcDbXrecord
280
     1
102
ACAD_MATT_HEIGHT
140
0.2000000063828596
  0
XRECORD
  5
942
102
{ACAD_REACTORS
330
940
102
}
330
940
100
AcDbXrecord
280
     1
 70
     2
 70
     0
 70
     0
 40
1.0
  2
CutLength
  1
Embedded Object
 10
9.788187406523503
 20
2.650723916597393
 30
0.0
 40
0.2000000063828596
 41
1.482387690971714
 46
0.0
 71
     5
 72
     5
  1

  7
Note Text (ANSI)
 73
     1
 44
1.0
  0
XRECORD
  5
941
102
{ACAD_REACTORS
330
940
102
}
330
940
100
AcDbXrecord
280
     1
102
ACAD_MATT_HEIGHT
140
0.2000000063828596
  0
XRECORD
  5
945
102
{ACAD_REACTORS
330
943
102
}
330
943
100
AcDbXrecord
280
     1
 70
     2
 70
     0
 70
     0
 40
1.0
  2
PART_NUMBER
  1
Embedded Object
 10
13.59332802256406
 20
0.9880712430298308
 30
0.0
 40
0.2499999962453767
 41
3.08996819176123
 46
0.0
 71
     5
 72
     5
  1
1623HD
  7
Text Style39
 73
     1
 44
1.0
  0
XRECORD
  5
944
102
{ACAD_REACTORS
330
943
102
}
330
943
100
AcDbXrecord
280
     1
102
ACAD_MATT_HEIGHT
140
0.2499999962453767
  0
ACDBDETAILVIEWSTYLE
  5
6C
102
{ACAD_REACTORS
330
6B
102
}
330
6B
100
AcDbModelDocViewStyle
 70
     0
  3
Imperial24
290
     0
100
AcDbDetailViewStyle
 70
     0
 71
     0
 90
        3
 71
     1
340
55
 40
0.24
340
0
 40
0.24
300

 40
0.36
280
     3
 71
     2
340
5D
 90
       25
 71
     3
340
55
 40
0.24
 90
        1
 40
0.75
 90
        1
300
%<\AcVar ViewType \f "%tc1">% %<\AcVar ViewDetailId>%\PSCALE %<\AcVar ViewScale \f "%sn">%
 71
     4
340
5D
 90
       25
340
5D
 90
       25
280
     0
  0
IMAGEDEF
  5
173
102
{ACAD_REACTORS
330
172
330
174
102
}
330
172
100
AcDbRasterImageDef
 90
        0
  1
C:\Users\kturdo\Desktop\Flanges\1623HD0.bmp
 10
247.0
 20
117.0
 11
0.2645502645502646
 21
0.2645502645502646
280
     1
281
     2
  0
LAYOUT
  5
70
102
{ACAD_XDICTIONARY
360
97F
102
}
102
{ACAD_REACTORS
330
62
102
}
330
62
100
AcDbPlotSettings
  1

  2

  4

  6

 40
0.0
 41
0.0
 42
0.0
 43
0.0
 44
0.0
 45
0.0
 46
0.0
 47
0.0
 48
0.0
 49
0.0
140
0.0
141
0.0
142
1.0
143
1.0
 70
   688
 72
     0
 73
     0
 74
     5
  7

 75
    16
147
1.0
148
0.0
149
0.0
100
AcDbLayout
  1
Layout1
 70
     1
 71
     1
 10
0.0
 20
0.0
 11
12.0
 21
9.0
 12
0.0
 22
0.0
 32
0.0
 14
0.0
 24
0.0
 34
0.0
 15
0.0
 25
0.0
 35
0.0
146
0.0
 13
0.0
 23
0.0
 33
0.0
 16
1.0
 26
0.0
 36
0.0
 17
0.0
 27
1.0
 37
0.0
 76
     0
330
6D
  0
LAYOUT
  5
78
102
{ACAD_XDICTIONARY
360
983
102
}
102
{ACAD_REACTORS
330
62
102
}
330
62
100
AcDbPlotSettings
  1

  2

  4

  6

 40
0.0
 41
0.0
 42
0.0
 43
0.0
 44
0.0
 45
0.0
 46
0.0
 47
0.0
 48
0.0
 49
0.0
140
0.0
141
0.0
142
1.0
143
1.0
 70
   688
 72
     0
 73
     0
 74
     5
  7

 75
    16
147
1.0
148
0.0
149
0.0
100
AcDbLayout
  1
Layout2
 70
     1
 71
     2
 10
0.0
 20
0.0
 11
12.0
 21
9.0
 12
0.0
 22
0.0
 32
0.0
 14
0.0
 24
0.0
 34
0.0
 15
0.0
 25
0.0
 35
0.0
146
0.0
 13
0.0
 23
0.0
 33
0.0
 16
1.0
 26
0.0
 36
0.0
 17
0.0
 27
1.0
 37
0.0
 76
     0
330
75
  0
LAYOUT
  5
74
102
{ACAD_XDICTIONARY
360
981
102
}
102
{ACAD_REACTORS
330
62
102
}
330
62
100
AcDbPlotSettings
  1

  2

  4

  6

 40
0.0
 41
0.0
 42
0.0
 43
0.0
 44
0.0
 45
0.0
 46
0.0
 47
0.0
 48
0.0
 49
0.0
140
0.0
141
0.0
142
1.0
143
1.0
 70
  1712
 72
     0
 73
     0
 74
     0
  7

 75
     0
147
1.0
148
0.0
149
0.0
100
AcDbLayout
  1
Model
 70
     1
 71
     0
 10
0.0
 20
0.0
 11
12.0
 21
9.0
 12
0.0
 22
0.0
 32
0.0
 14
0.0
 24
0.0
 34
0.0
 15
0.0
 25
0.0
 35
0.0
146
0.0
 13
0.0
 23
0.0
 33
0.0
 16
1.0
 26
0.0
 36
0.0
 17
0.0
 27
1.0
 37
0.0
 76
     0
330
71
  0
MATERIAL
  5
19
102
{ACAD_XDICTIONARY
360
1A
102
}
102
{ACAD_REACTORS
330
10
102
}
330
10
100
AcDbMaterial
  1
ByBlock
 72
     0
 43
0.0208333333333333
 43
0.0
 43
0.0
 43
0.0
 43
0.0
 43
0.0208333333333333
 43
0.0
 43
0.0
 43
0.0
 43
0.0
 43
1.0
 43
0.0
 43
0.0
 43
0.0
 43
0.0
 43
1.0
 77
     0
 47
0.0208333333333333
 47
0.0
 47
0.0
 47
0.0
 47
0.0
 47
0.0208333333333333
 47
0.0
 47
0.0
 47
0.0
 47
0.0
 47
1.0
 47
0.0
 47
0.0
 47
0.0
 47
0.0
 47
1.0
171
     0
 49
0.0208333333333333
 49
0.0
 49
0.0
 49
0.0
 49
0.0
 49
0.0208333333333333
 49
0.0
 49
0.0
 49
0.0
 49
0.0
 49
1.0
 49
0.0
 49
0.0
 49
0.0
 49
0.0
 49
1.0
175
     0
142
0.0208333333333333
142
0.0
142
0.0
142
0.0
142
0.0
142
0.0208333333333333
142
0.0
142
0.0
142
0.0
142
0.0
142
1.0
142
0.0
142
0.0
142
0.0
142
0.0
142
1.0
179
     0
144
0.0208333333333333
144
0.0
144
0.0
144
0.0
144
0.0
144
0.0208333333333333
144
0.0
144
0.0
144
0.0
144
0.0
144
1.0
144
0.0
144
0.0
144
0.0
144
0.0
144
1.0
147
0.0208333333333333
147
0.0
147
0.0
147
0.0
147
0.0
147
0.0208333333333333
147
0.0
147
0.0
147
0.0
147
0.0
147
1.0
147
0.0
147
0.0
147
0.0
147
0.0
147
1.0
  0
MATERIAL
  5
11
102
{ACAD_XDICTIONARY
360
12
102
}
102
{ACAD_REACTORS
330
10
102
}
330
10
100
AcDbMaterial
  1
ByLayer
 72
     0
 43
0.0208333333333333
 43
0.0
 43
0.0
 43
0.0
 43
0.0
 43
0.0208333333333333
 43
0.0
 43
0.0
 43
0.0
 43
0.0
 43
1.0
 43
0.0
 43
0.0
 43
0.0
 43
0.0
 43
1.0
 77
     0
 47
0.0208333333333333
 47
0.0
 47
0.0
 47
0.0
 47
0.0
 47
0.0208333333333333
 47
0.0
 47
0.0
 47
0.0
 47
0.0
 47
1.0
 47
0.0
 47
0.0
 47
0.0
 47
0.0
 47
1.0
171
     0
 49
0.0208333333333333
 49
0.0
 49
0.0
 49
0.0
 49
0.0
 49
0.0208333333333333
 49
0.0
 49
0.0
 49
0.0
 49
0.0
 49
1.0
 49
0.0
 49
0.0
 49
0.0
 49
0.0
 49
1.0
175
     0
142
0.0208333333333333
142
0.0
142
0.0
142
0.0
142
0.0
142
0.0208333333333333
142
0.0
142
0.0
142
0.0
142
0.0
142
1.0
142
0.0
142
0.0
142
0.0
142
0.0
142
1.0
179
     0
144
0.0208333333333333
144
0.0
144
0.0
144
0.0
144
0.0
144
0.0208333333333333
144
0.0
144
0.0
144
0.0
144
0.0
144
1.0
144
0.0
144
0.0
144
0.0
144
0.0
144
1.0
147
0.0208333333333333
147
0.0
147
0.0
147
0.0
147
0.0
147
0.0208333333333333
147
0.0
147
0.0
147
0.0
147
0.0
147
1.0
147
0.0
147
0.0
147
0.0
147
0.0
147
1.0
  0
MATERIAL
  5
21
102
{ACAD_XDICTIONARY
360
22
102
}
102
{ACAD_REACTORS
330
10
102
}
330
10
100
AcDbMaterial
  1
Global
 72
     0
 43
0.0208333333333333
 43
0.0
 43
0.0
 43
0.0
 43
0.0
 43
0.0208333333333333
 43
0.0
 43
0.0
 43
0.0
 43
0.0
 43
1.0
 43
0.0
 43
0.0
 43
0.0
 43
0.0
 43
1.0
 77
     0
 47
0.0208333333333333
 47
0.0
 47
0.0
 47
0.0
 47
0.0
 47
0.0208333333333333
 47
0.0
 47
0.0
 47
0.0
 47
0.0
 47
1.0
 47
0.0
 47
0.0
 47
0.0
 47
0.0
 47
1.0
171
     0
 49
0.0208333333333333
 49
0.0
 49
0.0
 49
0.0
 49
0.0
 49
0.0208333333333333
 49
0.0
 49
0.0
 49
0.0
 49
0.0
 49
1.0
 49
0.0
 49
0.0
 49
0.0
 49
0.0
 49
1.0
175
     0
142
0.0208333333333333
142
0.0
142
0.0
142
0.0
142
0.0
142
0.0208333333333333
142
0.0
142
0.0
142
0.0
142
0.0
142
1.0
142
0.0
142
0.0
142
0.0
142
0.0
142
1.0
179
     0
144
0.0208333333333333
144
0.0
144
0.0
144
0.0
144
0.0
144
0.0208333333333333
144
0.0
144
0.0
144
0.0
144
0.0
144
1.0
144
0.0
144
0.0
144
0.0
144
0.0
144
1.0
147
0.0208333333333333
147
0.0
147
0.0
147
0.0
147
0.0
147
0.0208333333333333
147
0.0
147
0.0
147
0.0
147
0.0
147
1.0
147
0.0
147
0.0
147
0.0
147
0.0
147
1.0
  0
MLEADERSTYLE
  5
67
102
{ACAD_XDICTIONARY
360
97D
102
}
102
{ACAD_REACTORS
330
66
102
}
330
66
100
AcDbMLeaderStyle
170
     2
171
     1
172
     0
 90
        2
 40
0.0
 41
0.0
173
     1
 91
-1056964608
340
5B
 92
       -2
290
     1
 42
0.09
291
     1
 43
0.36
  3
Standard
 44
0.18
300

342
55
174
     1
178
     6
175
     1
176
     0
 93
-1056964608
 45
0.18
292
     0
297
     0
 46
0.18
 94
-1056964608
 47
1.0
 49
1.0
140
1.0
293
     1
141
0.0
294
     1
177
     0
142
1.0
295
     0
296
     0
143
0.125
1001
ACAD_MLEADERVER
1070
     2
  0
MLINESTYLE
  5
60
102
{ACAD_REACTORS
330
5F
102
}
330
5F
100
AcDbMlineStyle
  2
STANDARD
 70
     0
  3

 62
   256
 51
90.0
 52
90.0
 71
     2
 49
0.5
 62
   256
  6
BYLAYER
 49
-0.5
 62
   256
  6
BYLAYER
  0
ACDBPLACEHOLDER
  5
F
102
{ACAD_REACTORS
330
E
102
}
330
E
  0
SCALE
  5
43
102
{ACAD_REACTORS
330
42
102
}
330
42
100
AcDbScale
 70
     0
300
1:1
140
1.0
141
1.0
290
     1
  0
SCALE
  5
44
102
{ACAD_REACTORS
330
42
102
}
330
42
100
AcDbScale
 70
     0
300
1/128" = 1'-0"
140
0.0078125
141
12.0
290
     0
  0
SCALE
  5
45
102
{ACAD_REACTORS
330
42
102
}
330
42
100
AcDbScale
 70
     0
300
1/64" = 1'-0"
140
0.015625
141
12.0
290
     0
  0
SCALE
  5
46
102
{ACAD_REACTORS
330
42
102
}
330
42
100
AcDbScale
 70
     0
300
1/32" = 1'-0"
140
0.03125
141
12.0
290
     0
  0
SCALE
  5
47
102
{ACAD_REACTORS
330
42
102
}
330
42
100
AcDbScale
 70
     0
300
1/16" = 1'-0"
140
0.0625
141
12.0
290
     0
  0
SCALE
  5
48
102
{ACAD_REACTORS
330
42
102
}
330
42
100
AcDbScale
 70
     0
300
3/32" = 1'-0"
140
0.09375
141
12.0
290
     0
  0
SCALE
  5
49
102
{ACAD_REACTORS
330
42
102
}
330
42
100
AcDbScale
 70
     0
300
1/8" = 1'-0"
140
0.125
141
12.0
290
     0
  0
SCALE
  5
4A
102
{ACAD_REACTORS
330
42
102
}
330
42
100
AcDbScale
 70
     0
300
3/16" = 1'-0"
140
0.1875
141
12.0
290
     0
  0
SCALE
  5
4B
102
{ACAD_REACTORS
330
42
102
}
330
42
100
AcDbScale
 70
     0
300
1/4" = 1'-0"
140
0.25
141
12.0
290
     0
  0
SCALE
  5
4C
102
{ACAD_REACTORS
330
42
102
}
330
42
100
AcDbScale
 70
     0
300
3/8" = 1'-0"
140
0.375
141
12.0
290
     0
  0
SCALE
  5
4D
102
{ACAD_REACTORS
330
42
102
}
330
42
100
AcDbScale
 70
     0
300
1/2" = 1'-0"
140
0.5
141
12.0
290
     0
  0
SCALE
  5
4E
102
{ACAD_REACTORS
330
42
102
}
330
42
100
AcDbScale
 70
     0
300
3/4" = 1'-0"
140
0.75
141
12.0
290
     0
  0
SCALE
  5
4F
102
{ACAD_REACTORS
330
42
102
}
330
42
100
AcDbScale
 70
     0
300
1" = 1'-0"
140
1.0
141
12.0
290
     0
  0
SCALE
  5
50
102
{ACAD_REACTORS
330
42
102
}
330
42
100
AcDbScale
 70
     0
300
1-1/2" = 1'-0"
140
1.5
141
12.0
290
     0
  0
SCALE
  5
51
102
{ACAD_REACTORS
330
42
102
}
330
42
100
AcDbScale
 70
     0
300
3" = 1'-0"
140
3.0
141
12.0
290
     0
  0
SCALE
  5
52
102
{ACAD_REACTORS
330
42
102
}
330
42
100
AcDbScale
 70
     0
300
6" = 1'-0"
140
6.0
141
12.0
290
     0
  0
SCALE
  5
53
102
{ACAD_REACTORS
330
42
102
}
330
42
100
AcDbScale
 70
     0
300
1'-0" = 1'-0"
140
12.0
141
12.0
290
     0
  0
ACDBSECTIONVIEWSTYLE
  5
6A
102
{ACAD_REACTORS
330
68
102
}
330
68
100
AcDbModelDocViewStyle
 70
     0
  3
Imperial24
290
     0
100
AcDbSectionViewStyle
 70
     0
 71
     0
 90
       78
 71
     1
340
55
 40
0.24
340
0
340
0
 40
0.24
300
I, O, Q, S, X, Z
 40
0.48
 90
        3
 40
0.18
 90
        1
 71
     2
340
69
 90
       25
340
5D
 90
       50
 40
0.24
 40
0.0
 40
0.24
 71
     3
340
55
 40
0.24
 90
        1
 40
0.75
 90
        1
300
%<\AcVar ViewType \f "%tc1">% %<\AcVar ViewSectionStartId>%-%<\AcVar ViewSectionEndId>%\PSCALE %<\AcVar ViewScale \f "%sn">%
 71
     4
300
ANSI31
 40
1.0
 90
        0
290
     0
290
     0
 90
        6
 40
0.0
 40
1.570796326794896
 40
0.2617993877991494
 40
1.308996938995747
 40
-0.2617993877991494
 40
1.832595714594046
  0
TABLESTYLE
  5
65
102
{ACAD_XDICTIONARY
360
8EE
102
}
102
{ACAD_REACTORS
330
64
102
}
330
64
100
AcDbTableStyle
  3
Standard
 70
     0
 71
     0
 40
0.06
 41
0.06
280
     0
281
     0
  7
Standard
140
0.18
170
     2
 62
     0
 63
     7
283
     0
274
    -2
284
     1
 64
     0
275
    -2
285
     1
 65
     0
276
    -2
286
     1
 66
     0
277
    -2
287
     1
 67
     0
278
    -2
288
     1
 68
     0
279
    -2
289
     1
 69
     0
  7
Standard
140
0.25
170
     5
 62
     0
 63
     7
283
     0
274
    -2
284
     1
 64
     0
275
    -2
285
     1
 65
     0
276
    -2
286
     1
 66
     0
277
    -2
287
     1
 67
     0
278
    -2
288
     1
 68
     0
279
    -2
289
     1
 69
     0
  7
Standard
140
0.18
170
     5
 62
     0
 63
     7
283
     0
274
    -2
284
     1
 64
     0
275
    -2
285
     1
 65
     0
276
    -2
286
     1
 66
     0
277
    -2
287
     1
 67
     0
278
    -2
288
     1
 68
     0
279
    -2
289
     1
 69
     0
  0
VISUALSTYLE
  5
2F
102
{ACAD_XDICTIONARY
360
955
102
}
102
{ACAD_REACTORS
330
29
102
}
330
29
100
AcDbVisualStyle
  2
2dWireframe
 70
     4
 71
     0
 72
     2
 73
     0
 90
        0
 40
-0.6
 41
-30.0
 62
     5
 63
     7
 74
     1
 91
        4
 64
     7
 65
   257
 75
     1
175
     1
 42
1.0
 92
        0
 66
   257
 43
1.0
 76
     1
 77
     6
 78
     2
 67
     7
 79
     5
170
     0
171
     0
290
     0
174
     0
 93
        1
 44
0.0
173
     0
291
     0
 45
0.0
1001
ACAD
1000
AcDbSavedByObjectVersion
1070
     0
  0
VISUALSTYLE
  5
2E
102
{ACAD_XDICTIONARY
360
953
102
}
102
{ACAD_REACTORS
330
29
102
}
330
29
100
AcDbVisualStyle
  2
Basic
 70
     7
 71
     1
 72
     0
 73
     1
 90
        0
 40
-0.6
 41
-30.0
 62
     5
 63
     7
 74
     0
 91
        4
 64
     7
 65
   257
 75
     1
175
     1
 42
1.0
 92
        8
 66
     7
 43
1.0
 76
     1
 77
     6
 78
     2
 67
     7
 79
     5
170
     0
171
     0
290
     0
174
     0
 93
        1
 44
0.0
173
     0
291
     1
 45
0.0
1001
ACAD
1000
AcDbSavedByObjectVersion
1070
     0
  0
VISUALSTYLE
  5
35
102
{ACAD_XDICTIONARY
360
961
102
}
102
{ACAD_REACTORS
330
29
102
}
330
29
100
AcDbVisualStyle
  2
Brighten
 70
    12
 71
     2
 72
     2
 73
     0
 90
        0
 40
-0.6
 41
-30.0
 62
     5
 63
     7
 74
     1
 91
        4
 64
     7
 65
   257
 75
     1
175
     1
 42
1.0
 92
        8
 66
     7
 43
1.0
 76
     1
 77
     6
 78
     2
 67
     7
 79
     5
170
     0
171
     0
290
     0
174
     0
 93
        1
 44
50.0
173
     0
291
     1
 45
0.0
1001
ACAD
1000
AcDbSavedByObjectVersion
1070
     0
  0
VISUALSTYLE
  5
39
102
{ACAD_XDICTIONARY
360
969
102
}
102
{ACAD_REACTORS
330
29
102
}
330
29
100
AcDbVisualStyle
  2
ColorChange
 70
    16
 71
     2
 72
     2
 73
     3
 90
        0
 40
-0.6
 41
-30.0
 62
     5
 63
     8
 74
     1
 91
        4
 64
     7
 65
   257
 75
     1
175
     1
 42
1.0
 92
        8
 66
     8
 43
1.0
 76
     1
 77
     6
 78
     2
 67
     7
 79
     5
170
     0
171
     0
290
     0
174
     0
 93
        1
 44
0.0
173
     0
291
     1
 45
0.0
1001
ACAD
1000
AcDbSavedByObjectVersion
1070
     0
  0
VISUALSTYLE
  5
32
102
{ACAD_XDICTIONARY
360
95B
102
}
102
{ACAD_REACTORS
330
29
102
}
330
29
100
AcDbVisualStyle
  2
Conceptual
 70
     9
 71
     3
 72
     2
 73
     0
 90
        0
 40
-0.6
 41
-30.0
 62
     5
 63
     7
 74
     2
 91
        2
 64
     7
 65
   257
 75
     1
175
     1
 42
179.0
 92
        8
 66
     7
 43
1.0
 76
     1
 77
     6
 78
     2
 67
     7
 79
     3
170
     0
171
     0
290
     0
174
     0
 93
        1
 44
0.0
173
     0
291
     0
 45
0.0
1001
ACAD
1000
AcDbSavedByObjectVersion
1070
     0
  0
VISUALSTYLE
  5
34
102
{ACAD_XDICTIONARY
360
95F
102
}
102
{ACAD_REACTORS
330
29
102
}
330
29
100
AcDbVisualStyle
  2
Dim
 70
    11
 71
     2
 72
     2
 73
     0
 90
        0
 40
-0.6
 41
-30.0
 62
     5
 63
     7
 74
     1
 91
        4
 64
     7
 65
   257
 75
     1
175
     1
 42
1.0
 92
        8
 66
     7
 43
1.0
 76
     1
 77
     6
 78
     2
 67
     7
 79
     5
170
     0
171
     0
290
     0
174
     0
 93
        1
 44
-50.0
173
     0
291
     1
 45
0.0
1001
ACAD
1000
AcDbSavedByObjectVersion
1070
     0
  0
VISUALSTYLE
  5
41
102
{ACAD_XDICTIONARY
360
979
102
}
102
{ACAD_REACTORS
330
29
102
}
330
29
100
AcDbVisualStyle
  2
EdgeColorOff
 70
    22
 71
     2
 72
     2
 73
     0
 90
        0
 40
-0.6
 41
-30.0
 62
     5
 63
     7
 74
     1
 91
        4
 64
     7
 65
   257
 75
     1
175
     1
 42
1.0
 92
        8
 66
     7
 43
1.0
 76
     1
 77
     6
 78
     2
 67
     7
 79
     5
170
     0
171
     0
290
     0
174
     0
 93
        1
 44
0.0
173
     0
291
     1
 45
0.0
1001
ACAD
1000
AcDbSavedByObjectVersion
1070
     0
  0
VISUALSTYLE
  5
38
102
{ACAD_XDICTIONARY
360
967
102
}
102
{ACAD_REACTORS
330
29
102
}
330
29
100
AcDbVisualStyle
  2
Facepattern
 70
    15
 71
     2
 72
     2
 73
     0
 90
        0
 40
-0.6
 41
-30.0
 62
     5
 63
     7
 74
     1
 91
        4
 64
     7
 65
   257
 75
     1
175
     1
 42
1.0
 92
        8
 66
     7
 43
1.0
 76
     1
 77
     6
 78
     2
 67
     7
 79
     5
170
     0
171
     0
290
     0
174
     0
 93
        1
 44
0.0
173
     0
291
     1
 45
0.0
1001
ACAD
1000
AcDbSavedByObjectVersion
1070
     0
  0
VISUALSTYLE
  5
2A
102
{ACAD_XDICTIONARY
360
94B
102
}
102
{ACAD_REACTORS
330
29
102
}
330
29
100
AcDbVisualStyle
  2
Flat
 70
     0
 71
     2
 72
     1
 73
     1
 90
        2
 40
-0.6
 41
30.0
 62
     5
 63
     7
 74
     0
 91
        0
 64
     7
 65
   257
 75
     1
175
     1
 42
1.0
 92
        8
 66
     7
 43
1.0
 76
     1
 77
     6
 78
     2
 67
     7
 79
     5
170
     0
171
     0
290
     0
174
     0
 93
       13
 44
0.0
173
     0
291
     1
 45
0.0
1001
ACAD
1000
AcDbSavedByObjectVersion
1070
     0
  0
VISUALSTYLE
  5
2B
102
{ACAD_XDICTIONARY
360
94D
102
}
102
{ACAD_REACTORS
330
29
102
}
330
29
100
AcDbVisualStyle
  2
FlatWithEdges
 70
     1
 71
     2
 72
     1
 73
     1
 90
        2
 40
-0.6
 41
30.0
 62
     5
 63
     7
 74
     1
 91
        0
 64
     7
 65
   257
 75
     1
175
     1
 42
1.0
 92
        0
 66
   257
 43
1.0
 76
     1
 77
     6
 78
     2
 67
     7
 79
     5
170
     0
171
     0
290
     0
174
     0
 93
       13
 44
0.0
173
     0
291
     1
 45
0.0
1001
ACAD
1000
AcDbSavedByObjectVersion
1070
     0
  0
VISUALSTYLE
  5
2C
102
{ACAD_XDICTIONARY
360
94F
102
}
102
{ACAD_REACTORS
330
29
102
}
330
29
100
AcDbVisualStyle
  2
Gouraud
 70
     2
 71
     2
 72
     2
 73
     1
 90
        2
 40
-0.6
 41
30.0
 62
     5
 63
     7
 74
     0
 91
        0
 64
     7
 65
   257
 75
     1
175
     1
 42
1.0
 92
        0
 66
     7
 43
1.0
 76
     1
 77
     6
 78
     2
 67
     7
 79
     5
170
     0
171
     0
290
     0
174
     0
 93
       13
 44
0.0
173
     0
291
     1
 45
0.0
1001
ACAD
1000
AcDbSavedByObjectVersion
1070
     0
  0
VISUALSTYLE
  5
2D
102
{ACAD_XDICTIONARY
360
951
102
}
102
{ACAD_REACTORS
330
29
102
}
330
29
100
AcDbVisualStyle
  2
GouraudWithEdges
 70
     3
 71
     2
 72
     2
 73
     1
 90
        2
 40
-0.6
 41
30.0
 62
     5
 63
     7
 74
     1
 91
        0
 64
     7
 65
   257
 75
     1
175
     1
 42
1.0
 92
        0
 66
   257
 43
1.0
 76
     1
 77
     6
 78
     2
 67
     7
 79
     5
170
     0
171
     0
290
     0
174
     0
 93
       13
 44
0.0
173
     0
291
     1
 45
0.0
1001
ACAD
1000
AcDbSavedByObjectVersion
1070
     0
  0
VISUALSTYLE
  5
31
102
{ACAD_XDICTIONARY
360
959
102
}
102
{ACAD_REACTORS
330
29
102
}
330
29
100
AcDbVisualStyle
  2
Hidden
 70
     6
 71
     1
 72
     2
 73
     2
 90
        0
 40
-0.6
 41
-30.0
 62
     5
 63
     7
 74
     2
 91
        2
 64
     7
 65
   257
 75
     2
175
     1
 42
40.0
 92
        0
 66
   257
 43
1.0
 76
     1
 77
     6
 78
     2
 67
     7
 79
     3
170
     0
171
     0
290
     0
174
     0
 93
        1
 44
0.0
173
     0
291
     0
 45
0.0
1001
ACAD
1000
AcDbSavedByObjectVersion
1070
     0
  0
VISUALSTYLE
  5
3F
102
{ACAD_XDICTIONARY
360
975
102
}
102
{ACAD_REACTORS
330
29
102
}
330
29
100
AcDbVisualStyle
  2
JitterOff
 70
    20
 71
     2
 72
     2
 73
     0
 90
        0
 40
-0.6
 41
-30.0
 62
     5
 63
     7
 74
     1
 91
        4
 64
     7
 65
   257
 75
     1
175
     1
 42
1.0
 92
       10
 66
     7
 43
1.0
 76
     1
 77
     6
 78
     2
 67
     7
 79
     5
170
     0
171
     0
290
     0
174
     0
 93
        1
 44
0.0
173
     0
291
     1
 45
0.0
1001
ACAD
1000
AcDbSavedByObjectVersion
1070
     0
  0
VISUALSTYLE
  5
37
102
{ACAD_XDICTIONARY
360
965
102
}
102
{ACAD_REACTORS
330
29
102
}
330
29
100
AcDbVisualStyle
  2
Linepattern
 70
    14
 71
     2
 72
     2
 73
     0
 90
        0
 40
-0.6
 41
-30.0
 62
     5
 63
     7
 74
     1
 91
        4
 64
     7
 65
   257
 75
     7
175
     7
 42
1.0
 92
        8
 66
     7
 43
1.0
 76
     1
 77
     6
 78
     2
 67
     7
 79
     5
170
     0
171
     0
290
     0
174
     0
 93
        1
 44
0.0
173
     0
291
     1
 45
0.0
1001
ACAD
1000
AcDbSavedByObjectVersion
1070
     0
  0
VISUALSTYLE
  5
40
102
{ACAD_XDICTIONARY
360
977
102
}
102
{ACAD_REACTORS
330
29
102
}
330
29
100
AcDbVisualStyle
  2
OverhangOff
 70
    21
 71
     2
 72
     2
 73
     0
 90
        0
 40
-0.6
 41
-30.0
 62
     5
 63
     7
 74
     1
 91
        4
 64
     7
 65
   257
 75
     1
175
     1
 42
1.0
 92
        9
 66
     7
 43
1.0
 76
     1
 77
     6
 78
     2
 67
     7
 79
     5
170
     0
171
     0
290
     0
174
     0
 93
        1
 44
0.0
173
     0
291
     1
 45
0.0
1001
ACAD
1000
AcDbSavedByObjectVersion
1070
     0
  0
VISUALSTYLE
  5
33
102
{ACAD_XDICTIONARY
360
95D
102
}
102
{ACAD_REACTORS
330
29
102
}
330
29
100
AcDbVisualStyle
  2
Realistic
 70
     8
 71
     2
 72
     3
 73
     0
 90
        2
 40
-0.6
 41
30.0
 62
     5
 63
     7
 74
     0
 91
        0
 64
     7
 65
   257
 75
     1
175
     1
 42
1.0
 92
        8
 66
   257
 43
1.0
 76
     1
 77
     6
 78
     2
 67
     7
 79
     3
170
     0
171
     0
290
     0
174
     0
 93
       13
 44
0.0
173
     0
291
     0
 45
0.0
1001
ACAD
1000
AcDbSavedByObjectVersion
1070
     0
  0
VISUALSTYLE
  5
3E
102
{ACAD_XDICTIONARY
360
973
102
}
102
{ACAD_REACTORS
330
29
102
}
330
29
100
AcDbVisualStyle
  2
Shaded
 70
    27
 71
     2
 72
     2
 73
     1
 90
        2
 40
-0.6
 41
30.0
 62
     5
 63
     7
 74
     0
 91
        4
 64
     7
 65
   257
 75
     1
175
     1
 42
1.0
 92
        8
 66
   257
 43
1.0
 76
     1
 77
     6
 78
     2
 67
     8
 79
     3
170
     0
171
     0
290
     0
174
     0
 93
        5
 44
0.0
173
     0
291
     0
 45
0.0
1001
ACAD
1000
AcDbSavedByObjectVersion
1070
     0
  0
VISUALSTYLE
  5
3D
102
{ACAD_XDICTIONARY
360
971
102
}
102
{ACAD_REACTORS
330
29
102
}
330
29
100
AcDbVisualStyle
  2
Shaded with edges
 70
    26
 71
     2
 72
     2
 73
     1
 90
        2
 40
-0.6
 41
30.0
 62
     5
 63
     7
 74
     1
 91
       10
 64
     7
 65
   257
 75
     2
175
     1
 42
1.0
 92
        8
 66
   257
 43
1.0
 76
     1
 77
     6
 78
     2
 67
     7
 79
     3
170
     0
171
     0
290
     0
174
     0
 93
        5
 44
0.0
173
     0
291
     0
 45
0.0
1001
ACAD
1000
AcDbSavedByObjectVersion
1070
     0
  0
VISUALSTYLE
  5
3A
102
{ACAD_XDICTIONARY
360
96B
102
}
102
{ACAD_REACTORS
330
29
102
}
330
29
100
AcDbVisualStyle
  2
Shades of Gray
 70
    23
 71
     2
 72
     2
 73
     3
 90
        0
 40
-0.6
 41
-30.0
 62
     5
 63
     7
 74
     2
 91
        2
 64
     7
 65
     7
 75
     1
175
     1
 42
40.0
 92
        8
 66
     7
 43
1.0
 76
     1
 77
     6
 78
     2
 67
     7
 79
     3
170
     0
171
     0
290
     0
174
     0
 93
        1
 44
0.0
173
     0
291
     0
 45
0.0
1001
ACAD
1000
AcDbSavedByObjectVersion
1070
     0
  0
VISUALSTYLE
  5
3B
102
{ACAD_XDICTIONARY
360
96D
102
}
102
{ACAD_REACTORS
330
29
102
}
330
29
100
AcDbVisualStyle
  2
Sketchy
 70
    24
 71
     1
 72
     2
 73
     2
 90
        0
 40
-0.6
 41
-30.0
 62
     5
 63
     7
 74
     2
 91
        2
 64
     7
 65
     7
 75
     1
175
     1
 42
40.0
 92
       11
 66
     7
 43
1.0
 76
     1
 77
     6
 78
     2
 67
     7
 79
     6
170
     0
171
     0
290
     0
174
     0
 93
        1
 44
0.0
173
     0
291
     0
 45
0.0
1001
ACAD
1000
AcDbSavedByObjectVersion
1070
     0
  0
VISUALSTYLE
  5
36
102
{ACAD_XDICTIONARY
360
963
102
}
102
{ACAD_REACTORS
330
29
102
}
330
29
100
AcDbVisualStyle
  2
Thicken
 70
    13
 71
     2
 72
     2
 73
     0
 90
        0
 40
-0.6
 41
-30.0
 62
     5
 63
     7
 74
     1
 91
        4
 64
     7
 65
   257
 75
     1
175
     1
 42
1.0
 92
       12
 66
     7
 43
1.0
 76
     1
 77
     6
 78
     2
 67
     7
 79
     5
170
     0
171
     0
290
     0
174
     0
 93
        1
 44
0.0
173
     0
291
     1
 45
0.0
1001
ACAD
1000
AcDbSavedByObjectVersion
1070
     0
  0
VISUALSTYLE
  5
30
102
{ACAD_XDICTIONARY
360
957
102
}
102
{ACAD_REACTORS
330
29
102
}
330
29
100
AcDbVisualStyle
  2
Wireframe
 70
     5
 71
     0
 72
     2
 73
     0
 90
        0
 40
-0.6
 41
-30.0
 62
     5
 63
     7
 74
     1
 91
        4
 64
     7
 65
   257
 75
     1
175
     1
 42
1.0
 92
        0
 66
   257
 43
1.0
 76
     1
 77
     6
 78
     2
 67
     7
 79
     3
170
     0
171
     0
290
     0
174
     0
 93
        1
 44
0.0
173
     0
291
     0
 45
0.0
1001
ACAD
1000
AcDbSavedByObjectVersion
1070
     0
  0
VISUALSTYLE
  5
3C
102
{ACAD_XDICTIONARY
360
96F
102
}
102
{ACAD_REACTORS
330
29
102
}
330
29
100
AcDbVisualStyle
  2
X-Ray
 70
    25
 71
     2
 72
     2
 73
     1
 90
        1
 40
0.5
 41
-30.0
 62
     5
 63
     7
 74
     1
 91
        0
 64
     7
 65
   257
 75
     1
175
     1
 42
1.0
 92
        8
 66
     7
 43
1.0
 76
     1
 77
     6
 78
     2
 67
     7
 79
     3
170
     0
171
     0
290
     0
174
     0
 93
       13
 44
0.0
173
     0
291
     0
 45
0.0
1001
ACAD
1000
AcDbSavedByObjectVersion
1070
     0
  0
DICTIONARYVAR
  5
8E5
102
{ACAD_REACTORS
330
8DF
102
}
330
8DF
100
DictionaryVariables
280
     0
  1
1:1
  0
DICTIONARYVAR
  5
8E1
102
{ACAD_REACTORS
330
8DF
102
}
330
8DF
100
DictionaryVariables
280
     0
  1
STANDARD
  0
DICTIONARYVAR
  5
8E0
102
{ACAD_REACTORS
330
8DF
102
}
330
8DF
100
DictionaryVariables
280
     0
  1
STANDARD
  0
DICTIONARYVAR
  5
8E2
102
{ACAD_REACTORS
330
8DF
102
}
330
8DF
100
DictionaryVariables
280
     0
  1
Imperial24
  0
DICTIONARYVAR
  5
8E3
102
{ACAD_REACTORS
330
8DF
102
}
330
8DF
100
DictionaryVariables
280
     0
  1
Imperial24
  0
DICTIONARYVAR
  5
8EC
102
{ACAD_REACTORS
330
8DF
102
}
330
8DF
100
DictionaryVariables
280
     0
  1
1
  0
DICTIONARYVAR
  5
8EB
102
{ACAD_REACTORS
330
8DF
102
}
330
8DF
100
DictionaryVariables
280
     0
  1
1
  0
DICTIONARYVAR
  5
8EA
102
{ACAD_REACTORS
330
8DF
102
}
330
8DF
100
DictionaryVariables
280
     0
  1
0
  0
DICTIONARYVAR
  5
8E7
102
{ACAD_REACTORS
330
8DF
102
}
330
8DF
100
DictionaryVariables
280
     0
  1
0
  0
DICTIONARYVAR
  5
8E8
102
{ACAD_REACTORS
330
8DF
102
}
330
8DF
100
DictionaryVariables
280
     0
  1
0
  0
DICTIONARYVAR
  5
8E6
102
{ACAD_REACTORS
330
8DF
102
}
330
8DF
100
DictionaryVariables
280
     0
  1
2
  0
DICTIONARYVAR
  5
8E4
102
{ACAD_REACTORS
330
8DF
102
}
330
8DF
100
DictionaryVariables
280
     0
  1
1
  0
DICTIONARYVAR
  5
8E9
102
{ACAD_REACTORS
330
8DF
102
}
330
8DF
100
DictionaryVariables
280
     0
  1
127
  0
DICTIONARYVAR
  5
8ED
102
{ACAD_REACTORS
330
8DF
102
}
330
8DF
100
DictionaryVariables
280
     0
  1
2
  0
DICTIONARY
  5
97F
330
70
100
AcDbDictionary
280
     1
281
     1
  3
ACAD_XREC_ROUNDTRIP
360
980
  0
DICTIONARY
  5
983
330
78
100
AcDbDictionary
280
     1
281
     1
  3
ACAD_XREC_ROUNDTRIP
360
984
  0
DICTIONARY
  5
981
330
74
100
AcDbDictionary
280
     1
281
     1
  3
ACAD_XREC_ROUNDTRIP
360
982
  0
DICTIONARY
  5
1A
330
19
100
AcDbDictionary
280
     1
281
     1
  3
ACAD_XREC_ROUNDTRIP
360
949
  3
BUMPTILE
360
1C
  3
DIFFUSETILE
360
1B
  3
OPACITYTILE
360
1F
  3
REFLECTIONTILE
360
1E
  3
REFRACTIONTILE
360
20
  3
SPECULARTILE
360
1D
  0
DICTIONARY
  5
12
330
11
100
AcDbDictionary
280
     1
281
     1
  3
ACAD_XREC_ROUNDTRIP
360
948
  3
BUMPTILE
360
14
  3
DIFFUSETILE
360
13
  3
FBXASSET
360
E9
  3
OPACITYTILE
360
17
  3
REFLECTIONTILE
360
16
  3
REFRACTIONTILE
360
18
  3
SPECULARTILE
360
15
  0
DICTIONARY
  5
22
330
21
100
AcDbDictionary
280
     1
281
     1
  3
ACAD_XREC_ROUNDTRIP
360
94A
  3
BUMPTILE
360
24
  3
DIFFUSETILE
360
23
  3
OPACITYTILE
360
27
  3
REFLECTIONTILE
360
26
  3
REFRACTIONTILE
360
28
  3
SPECULARTILE
360
25
  0
DICTIONARY
  5
97D
330
67
100
AcDbDictionary
280
     1
281
     1
  3
ACAD_XREC_ROUNDTRIP
360
97E
  0
DICTIONARY
  5
8EE
330
65
100
AcDbDictionary
280
     1
281
     1
  3
ACAD_ROUNDTRIP_2008_TABLESTYLE_CELLSTYLEMAP
360
8EF
  3
ACAD_XREC_ROUNDTRIP
360
97B
  0
DICTIONARY
  5
955
330
2F
100
AcDbDictionary
280
     1
281
     1
  3
ACAD_XREC_ROUNDTRIP
360
956
  0
DICTIONARY
  5
953
330
2E
100
AcDbDictionary
280
     1
281
     1
  3
ACAD_XREC_ROUNDTRIP
360
954
  0
DICTIONARY
  5
961
330
35
100
AcDbDictionary
280
     1
281
     1
  3
ACAD_XREC_ROUNDTRIP
360
962
  0
DICTIONARY
  5
969
330
39
100
AcDbDictionary
280
     1
281
     1
  3
ACAD_XREC_ROUNDTRIP
360
96A
  0
DICTIONARY
  5
95B
330
32
100
AcDbDictionary
280
     1
281
     1
  3
ACAD_XREC_ROUNDTRIP
360
95C
  0
DICTIONARY
  5
95F
330
34
100
AcDbDictionary
280
     1
281
     1
  3
ACAD_XREC_ROUNDTRIP
360
960
  0
DICTIONARY
  5
979
330
41
100
AcDbDictionary
280
     1
281
     1
  3
ACAD_XREC_ROUNDTRIP
360
97A
  0
DICTIONARY
  5
967
330
38
100
AcDbDictionary
280
     1
281
     1
  3
ACAD_XREC_ROUNDTRIP
360
968
  0
DICTIONARY
  5
94B
330
2A
100
AcDbDictionary
280
     1
281
     1
  3
ACAD_XREC_ROUNDTRIP
360
94C
  0
DICTIONARY
  5
94D
330
2B
100
AcDbDictionary
280
     1
281
     1
  3
ACAD_XREC_ROUNDTRIP
360
94E
  0
DICTIONARY
  5
94F
330
2C
100
AcDbDictionary
280
     1
281
     1
  3
ACAD_XREC_ROUNDTRIP
360
950
  0
DICTIONARY
  5
951
330
2D
100
AcDbDictionary
280
     1
281
     1
  3
ACAD_XREC_ROUNDTRIP
360
952
  0
DICTIONARY
  5
959
330
31
100
AcDbDictionary
280
     1
281
     1
  3
ACAD_XREC_ROUNDTRIP
360
95A
  0
DICTIONARY
  5
975
330
3F
100
AcDbDictionary
280
     1
281
     1
  3
ACAD_XREC_ROUNDTRIP
360
976
  0
DICTIONARY
  5
965
330
37
100
AcDbDictionary
280
     1
281
     1
  3
ACAD_XREC_ROUNDTRIP
360
966
  0
DICTIONARY
  5
977
330
40
100
AcDbDictionary
280
     1
281
     1
  3
ACAD_XREC_ROUNDTRIP
360
978
  0
DICTIONARY
  5
95D
330
33
100
AcDbDictionary
280
     1
281
     1
  3
ACAD_XREC_ROUNDTRIP
360
95E
  0
DICTIONARY
  5
973
330
3E
100
AcDbDictionary
280
     1
281
     1
  3
ACAD_XREC_ROUNDTRIP
360
974
  0
DICTIONARY
  5
971
330
3D
100
AcDbDictionary
280
     1
281
     1
  3
ACAD_XREC_ROUNDTRIP
360
972
  0
DICTIONARY
  5
96B
330
3A
100
AcDbDictionary
280
     1
281
     1
  3
ACAD_XREC_ROUNDTRIP
360
96C
  0
DICTIONARY
  5
96D
330
3B
100
AcDbDictionary
280
     1
281
     1
  3
ACAD_XREC_ROUNDTRIP
360
96E
  0
DICTIONARY
  5
963
330
36
100
AcDbDictionary
280
     1
281
     1
  3
ACAD_XREC_ROUNDTRIP
360
964
  0
DICTIONARY
  5
957
330
30
100
AcDbDictionary
280
     1
281
     1
  3
ACAD_XREC_ROUNDTRIP
360
958
  0
DICTIONARY
  5
96F
330
3C
100
AcDbDictionary
280
     1
281
     1
  3
ACAD_XREC_ROUNDTRIP
360
970
  0
XRECORD
  5
980
102
{ACAD_REACTORS
330
97F
102
}
330
97F
100
AcDbXrecord
280
     1
102
SHADEPLOT
 70
     0
102
SHADEPLOTRESLEVEL
 70
     2
102
SHADEPLOTCUSTOMDPI
 70
   300
  0
XRECORD
  5
984
102
{ACAD_REACTORS
330
983
102
}
330
983
100
AcDbXrecord
280
     1
102
SHADEPLOT
 70
     0
102
SHADEPLOTRESLEVEL
 70
     2
102
SHADEPLOTCUSTOMDPI
 70
   300
  0
XRECORD
  5
982
102
{ACAD_REACTORS
330
981
102
}
330
981
100
AcDbXrecord
280
     1
102
SHADEPLOT
 70
     0
102
SHADEPLOTRESLEVEL
 70
     2
102
SHADEPLOTCUSTOMDPI
 70
   300
  0
XRECORD
  5
949
102
{ACAD_REACTORS
330
1A
102
}
330
1A
100
AcDbXrecord
280
     1
102
MATERIAL
148
0.0
149
0.0
149
0.0
 93
        0
 94
      127
282
     0
 72
     0
 77
     0
171
     0
175
     0
179
     0
273
     0
  0
XRECORD
  5
1C
102
{ACAD_REACTORS
330
1A
102
}
330
1A
100
AcDbXrecord
280
     1
270
     1
271
     1
  0
XRECORD
  5
1B
102
{ACAD_REACTORS
330
1A
102
}
330
1A
100
AcDbXrecord
280
     1
270
     1
271
     1
  0
XRECORD
  5
1F
102
{ACAD_REACTORS
330
1A
102
}
330
1A
100
AcDbXrecord
280
     1
270
     1
271
     1
  0
XRECORD
  5
1E
102
{ACAD_REACTORS
330
1A
102
}
330
1A
100
AcDbXrecord
280
     1
270
     1
271
     1
  0
XRECORD
  5
20
102
{ACAD_REACTORS
330
1A
102
}
330
1A
100
AcDbXrecord
280
     1
270
     1
271
     1
  0
XRECORD
  5
1D
102
{ACAD_REACTORS
330
1A
102
}
330
1A
100
AcDbXrecord
280
     1
270
     1
271
     1
  0
XRECORD
  5
948
102
{ACAD_REACTORS
330
12
102
}
330
12
100
AcDbXrecord
280
     1
102
MATERIAL
148
0.0
149
0.0
149
0.0
 93
        0
 94
      127
282
     0
 72
     0
 77
     0
171
     0
175
     0
179
     0
273
     0
  0
XRECORD
  5
14
102
{ACAD_REACTORS
330
12
102
}
330
12
100
AcDbXrecord
280
     1
270
     1
271
     1
  0
XRECORD
  5
13
102
{ACAD_REACTORS
330
12
102
}
330
12
100
AcDbXrecord
280
     1
270
     1
271
     1
  0
XRECORD
  5
E9
102
{ACAD_REACTORS
330
12
102
}
330
12
100
AcDbXrecord
280
     1
 70
     1
 90
1959938040
 71
     1
  1
72D6EE91-1F4C-4CCF-BA98-9213BEF4D435
311
504B03040A0000080000A4546B423DEE336E79000000790000001B0000006175746F6465736B2D64657369676E2D7061636B6167652E786D6C3C3F786D6C2076657273696F6E3D22312E302220656E636F64696E673D227574662D3822203F3E3C666F726D6174733E3C666F726D61743E687474703A2F2F736368656D612E
311
6175746F6465736B2E636F6D2F64657369676E2D7061636B6167652F323030393C2F666F726D61743E3C2F666F726D6174733E504B0304140006080800A4546B42FAA28935A700000035010000130000005B436F6E74656E745F54797065735D2E786D6CA58FC10E823010447FA5D93B143D1863281ED43FE0076ADD4223DD
311
36ED62F0EF2DE16ABC78DC9DC99B99F6BCF849BC30651748C1AE6E402099F070342898D9564710E7AEEDDF11B3285ECA0A46E67892329B11BDCE75884845B12179CDE54C838CDA3CF58072DF34076902311257BC32A06BAF68F53CB1B82DE5BDE5DE1D81B86CBEBED814E818276734975A321846AE3227D41EE4578023FB1F
311
A00CF80158D5122CD76EB9FB00504B0304140006080800A4546B4261C43189F80000009701000008000000636F72652E786D6C8D905D6EC3201084AF82F61D1B425C630B13356D7A825E0061E2A2C460F113F5F8C58923B56F7DDAD5301F3B1A71F89EAFE86642B4DE0D402B02C838ED47EBA601723A630EE82045F03EFDB2
311
01726A3603AC324831059F974DD2DE25E352519D1FCD26AA184D02A4AF651920EA2F33AB4AE5541CF1522D4A5FD4642AFADC0A9CB31DD1E3881DCB7FF66C4D00D9B123EB4EEC03BFB6CD11EFBB96E0EE7DDF61CEF85BDB70CA787312F50A4B91ECFCBCAF8351C98C207784324C18A6F493929EB53DE198BCF484887AB5FF81
311
F232FE13CAD625B6DBE23EB008929620F70729620AA5D0CD504A4828AA5BC9534B51AF359571EFB0CCB552F903504B0304140006080800A4546B42818D755B7E0000009D00000007000000636E782E786D6C4DCCD10A83201886E15B91FFDCE5662C053572AEFB886521990EA76397BF1A1DECE883878F57B49FD5A3B74D2F
311
178384F38900B2E11147176609254F98016A954831E6BF1BA030AC56C2CEA0C49C62791E34DA69283E6FEA5D580EE45743E985F4D8B04EE35A1B8239BDF5B836E4CE754359D351A894A87EA56DF7B0FA02504B0304140006080800A4546B425007ADA42A0100001E0200002D00000039364433333230462D443841422D3442
311
44302D393343462D3444304539423733383741332F636F72652E786D6C8D51DB72C22014FC158627FB400262353A04479BFA05FD010C47CB6820C3A5E3E79734D1B66FBE84CC9EDD3D0B2BB6B7EE8ABEC007E36C8D59413102DB3A6DECB9C6299E4885D1560AEF5CFC43C3C8AA0E6A3CC0588AB377A99FA0D6D9083666D43A
311
0D13A8428088517BCD3F350EED2774AA50296646B814BD6A2FEA0C052BF238F3A408D1E700685C327CB15C2F1BCEE7F4409A6AB7278B7D43C99ABF1DC8A2A1EFEBFD8A57AB1D17E528942225A327B9D1398E3919F0CF9A0C6229A2E9EEF15B0F2A82C6724E19279413C63E18DDF0D58656842E37948A72A0FF13A55E3F294A
311
C6463E9FE28EB2802513E5389042BB74BCDEC3C0AD773EA261DF2C40FB82CB7CDDECB05C4C0E213A9F9F7376393E660F77E88EA091EB63AE1BCBD7DF15E5D09614E54F95F91C9A95DF504B0304140006080800A4546B426A77868595000000F50000002C00000039364433333230462D443841422D344244302D393343462D
311
3444304539423733383741332F636E782E786D6C5D8E4B0EC2300C44AF12795F023B164E2A246EC00942E396887C503E88E313438550375EBC9979328EAFE0C5937271292A38ECF620284EC9BAB82868751E8E20468D39A5FA5703114D20058C41E392537BACC8D26C9AAF9D7A17EF2B3C9542F56CAAE99897C2A7C9F82EA0
311
38B402FA97A3E458A3E4B146BEABE232DD2898DE456E6C0514AE642D5951BEB58D477E3EEC5A7E58BF01504B0304140006080800A4546B42BF6F73C2FB000000A00100003700000039364433333230462D443841422D344244302D393343462D3444304539423733383741332F4173736574446174612F636F72652E786D6C
311
8D50596EC32010BD8A35FFD810E27811264A1ADFA0174098B82831582C558F5F885DA9FDEB0F83DE32F3F4D8F96B79169FCA796DCD00A4C4502823EDA4CD3C400C77D44271E6CC591B7EC9A0306251036418389B9D8DEB0E496B823221A1C64E6A0785F72A40219FE93380971F6A11A5882129FCA35C857C885995A44C74D2
311
71E6834B018AED487E815FF28A9B0882551BCB598C7ADA357A4A37F55D2B07BCA357DA8D744497A6BEA263D760D4DD8E1D6A69FBD6D42DA16D3DB22A9B390B7AF9C9289D12414DC00F9850842922E49DE09E363D6E113EF518B32ACBFF98E23AFDD314B509F4B0C7DD6C1EF8290579119C55B9AF345E65A699BBE5DF504B03
311
04140006080800A4546B42A0BF74CD76010000860500003600000039364433333230462D443841422D344244302D393343462D3444304539423733383741332F4173736574446174612F636E782E786D6CD554C14EC42010FD15C2BD2D7513DD6C281BA3973DAD89C63B4BA72B590A0D4C8DFEBDD0B2A989D9D31ED40B90E1
311
BD37C3CB307CFBD11BF20E3E68671B5A978C12B0CAB5DA1E1B3A6257AC29D90AEE9DC36F304AACECA1A1294C053F7A370E39D442274783316AB43DE5E02374DA6A8C3976085EA2F34FDE0DE05143A04419194243837A835E967244D7423895AD4459D6A587E046AF202AA6A4C438254DCC0DB61803158B34396B93459C5789
311
23F8E83549A786A6F53BEB4C5A38E5415B5E4586E0017D342233F1738845C861305AC9F496CA29042C220864CFABB847B0E0A87BC814E54122B454DCB07A55B05551D72F35DBACEE366C5DB0DB0D63BC4A70C10FCE994CD2367AE406A25C3C58A42282D2B5E055B254F0B466ECCE069456C152FDAFD8F9B38CFF64E27D0880
311
2FF26060DF3DCCA65FDB9593249934C9BE2367D54BED38C127F452C17F72F01963A3F7AFF31899DE71651BCE82242B86D9C94BEECDE08C9DB297DA767FFA0B57D3C88C3FDAC7C12ABE00504B0304140006080800A4546B425ABD95A484000000200100004F00000039364433333230462D443841422D344244302D39334346
311
2D3444304539423733383741332F4173736574446174612F446566696E6974696F6E4974657261746F7250726F706572746965732E62696EEB60B065F90F050C40C008C40D0C8C0CBC40DA3D352FB5283339383923353791811D28E254E99358995A046242259980A220AE4B6A5A62694E09489B6F6671726A4E4E625E6A7E
311
69B120501EAA542137B104685E628E1E481327500226500C32211D621B23505C828101E424492093C137B1A438C61D2217930EA1F50AF2D2417274C000504B0304140006080800A4546B42314321DEF4000000300200004500000039364433333230462D443841422D344244302D393343462D344430453942373338374133
311
2F4173736574446174612F496E7374616E636550726F706572746965732E62696EEB6098C0F21F0A18808011881B1818197881B47B6A5E6A5166727072466A6EA20A50C0DCC8C5CCD5D5D250D7D0CDC459D7C4D9D94DD7C9D1D242D7D2C8D0D8C9D5CDC4C5C4D8941DA80EAA11A4C5D8D0C4C5D5C8D452D7D4C4C458D7C4CC
311
C850D7C9CDC945D7D0DCD8C0D9CCD9D9D2D1D512642783664CFFA1AF1A57ECA13413D0980606060618DF1EC806A20FF640B701690606010706010638507160C00F801A210AE00C081793842B003398810A1A18C0E001D40D3C601E3A010A4384CC07A85A74550C0C293B1D18F002EC5A41C683C213A4F5833D0B906204623E
311
200E2E4F2C49CED0752A4ACC4B494D01B9172848330400504B0304140006080800A4546B425BACBC7951000000570000004700000039364433333230462D443841422D344244302D393343462D3444304539423733383741332F4173736574446174612F41737365745461626C654F66436F6E74656E74732E62696E536160
311
60303772317375B534D435743371D635717676D37572B4B4D0B534323476727533713131361502AACB4D2C492DCA4CCC492C28484D2C4ACC4B4E050A82112F90744FCD03CA26072767A4E6260200504B0304140006080800A4546B42F865834058000000680000004500000039364433333230462D443841422D344244302D
311
393343462D3444304539423733383741332F4173736574446174612F53747265616D56657273696F6E5461626C652E696E66558CBD0A80300C06F73E4B117FB66E451741D041DC5BF98480A492E4FDD18EAEC7DD4555D89EF28DF51A0B1BD8340C4DE7DD848B988C0ACF0649566493F2408C508DDEBB99D5129FF8F1AF8CF5
311
B9503E20FAE5A16B5AF702504B0304140006080800A4546B42BA8DF4DFFA0000009E0100003500000039364433333230462D443841422D344244302D393343462D3444304539423733383741332F536368656D61732F636F72652E786D6C8D50596EC32010BD8A35FFD810E27A11266ADAF402ED0510100725068BA5EAF18B
311
974AED5F7F66466FD13C3D76FA9A1EC5A7F6C1383B00293114DA4AA78C1D0748F18A5A284E9C79E7E22F1914564C7A800506CE46EFD2BC43D2D9A86DCCA8754AEFA008414728E4231F030479D39328458A5911EEE52CE45D8CBA2465A6B38EB3107D0E506C4F9609FC7D3505566D1C672919B52B8CCA1FCDD5680FBCA367DA
311
5DE81B7A6EEA333A760D46DDEBB1432D6D5F9ABA25B4AD2FAC5ACC9C4533FD24945E8BA815F0032614618A08F920B8A74D8F5B849F7A8C59B5C8FF98D2ACFE694AC6467AD8E36EB6009CE4202BC159B5B495D75A65DE4BB3FC1B504B0304140006080800A4546B422A08C69126010000D30300003400000039364433333230
311
462D443841422D344244302D393343462D3444304539423733383741332F536368656D61732F636E782E786D6CD593CF4EC42010C65F85706F4B6DA29B86B2070F9EBCB8BE00D2D9952C651AFE187D7B872E8735F1AAD10B6186DFF0653E18B97F5F1C7B83102DFA89F7ADE00CBCC1D9FAD3C4733A363BCEF64A06C4748571
311
E6F502132F69AEE429605E6B6A86A3CE2E51D6597FAEC97B5C16F407F30A8BE6CC381DE3C4E316B63A279C219EDB5927DDF66D80883918A01B8A087368B4232DF04D8E5C1DB62A76B40E6457002573B055A7C45C5DABB5D49FEC885032A6405D55327DACA4A0D7D559A31335DF6DE0855132D9052A6902E804335737A21F1A
311
31347DFFDC8B71B81BC5AE11B7A310B22BB8922F88AE16599F20E0CA0CD2C627AE082AC74A76C51625CB5AD907F010ACB934F6F3EE7C91FB07F63C819F213CD21B04ABDD6FB9F49DEA5F35ABDBE68FBE56A029559F504B0304140006080800A4546B422F7B2A8D8D0100005E0600003D00000039364433333230462D443841
311
422D344244302D393343462D3444304539423733383741332F536368656D61732F436F6D6D6F6E536368656D612E786D6CC5944D6EC2301085F79C22F20550BB4E90A0486D24D44551BA1FE201AC3A76E43841B97D9D716A151228B448CD2A9267BE37CF3F2F9E5715DA75BEC702669388BE384B97510332614FBA28B4F2AB
311
6C3689A76E2554ADAD116A17099EB00554D8574565BD91224FD81664852CE2B8154A58A1556AD180D566091612664DED569B4E85C89E16E0A9B2B84343744F7E4753390A3B1530085C2BD91E211F89D94302D46B10936CAFC4265D326F95451236E83C7F5BE91CFB9E3104743B67DBD2D938F13C3A124D749E26750EF22A1A
311
551EB9BD06ADA0F879D09BD159FA3AC6BD7CE837AB7C607BD0860F8E1EA4D487A296569412DD55AAB1FADA973B4F9083BB8EDAB4FF3802C72A37A2EC5ED2608A7BB8CDDE56F432ECBE2E360A841CA8FC7ABBDDD1248C2EA913094F69A1B5445024FA2238473550BCEC8BB05B8A99EEA5F6BCC0CF6AC109DE27C7B30BAFDF28
311
F8C11D2C90FB5C21787326969A2ED91EA8B72F1F6D37D888D158BBD0EF3691A49D9F10AE0363E733C8B58751DC3FA1E6BC019523FF2B329ECEBB54F4893D9B7C02504B0304140006080800A4546B427229482E27050000001600003E00000039364433333230462D443841422D344244302D393343462D3444304539423733
311
383741332F536368656D61732F47656E65726963536368656D612E786D6CDD586D4FE33810FECEAFB0F27D4BCB1DAB5BA9456A41F4FA0171A2705F2D37718AEF9CA4B29D42EFD7DF783C3549CBB601F676B587549197F1CC3CF3F278E2E1D85AE9E6E9A32CC4C509C3BFE1C3EC8AAD851E2553594AA3D2F03AB938199EC2AB
311
2836115606B93B5966D2DC0807D24237C4BD4894779B15C9172429562B298C285389CABD40949E954E2EA5612A1B2541E39FD2585595095BD50BADD251920B6D65C28C145955EACD2871A686FBB5777D801A4949543A7746954BD4A9AB54686FF1A83E946C291FB7FD0E5ABF6AA414057875C4E97D23147CC4B1636152555A
311
8A1271A495AE0C5F6C78B5F84BA62E0919C94368B45848C8E3A59761930DBB0D323E93A4237A1D647CB49721EB3C53795EFB000BADABA7B42A4BD02F33E12BC68E120B91D4006C2DF4DD28E9F77E199CA3F169F366D2BC198F9241C29A3E2138B41CFDB8D69570886CC70FAE0AB1943C1799443B4D6533FF8A5DFB57172754
311
C68C0D27555D6696ADA44965E960F5368BAA4C8D2CE09955FF485454A852157501EE268CAE15204C756DD51A44426915E23948010EBADE970AD1F59623A85344156FF1AE85D1C85C4374D55AB90D178EF733B94CD8D1C0A3BB14D0BB860A8C2B5A7983CD2FDFC3E8525716E22AADED06AF771E2B66FAB2D487B80D8FCAB915
311
546579219DD0542E79AB277E57CB470D3F673158B4FE40B81C10955D0923CB74D3CDF7E8F97D73E9CF59A0AE01E1FFDE8946A40E361AAE60577BA6E219F4CECF623EA1D548066AE720DD50CD1DE29B5EDF9349A09F7D32614433A3041A81AEF7A57C3F04B28B05DC85720804C7E4EA1A4832DDF027E9BBE23D154E1A8EC524
311
50E9A190FC100A4E6B57D58E572B91020977C20F8923F2BDC4C5814A8E13D342A47FE722953CADF5EBEC34210976E925427A71CF8FF9452B2DBAB352E75C695D171C7EAAC4B92A8C03FD58BA731062332F0402BECA215BC3A3B5626115A94EFD2CC19D2C605715AE36921AE4F379FFC5CAA51762F70D210F015D8E00824C73
311
E06858C9958661921762D5211177B883AF8586D10352021793ED93D6C8718D4A191A46D878151D42F75A115DD4C58A8B02A60898ABBA6CC6BDB32F3B7F31F0E3A0E608FBE7618F3AD01C9F06FD7EBF5B8304C130B2BC8733303CFB01E99C1470738D490917909470D14ACA0462FC4A32683F6E591715AF60FC079D71F6A7F6
311
1B170B05D31CBB4D716003295F6FA4232698BE0676755A51ACB4847904150F3EC794CDE9C58773063B478799F2EC1C4CBF89E2095004B85FC110B24C59D7A0825F23BC1BF1CCAEB62F7DBC70795446D1DB8D56061395D2DB68052EA72C3CC0F760A8996B5315ECD63DC2F7DB0D7DEB056E24A5D1089A6C9930D06D595A19F8
311
F2B4DC884CD560AB4BEF455C775E037439AAC0D2422BD126F9F075AB680D3F7F244C7B0E5808B848416712D5E57009B447A8275A96197B52EEB11362CA59DB3A8CEE3C932BF74816A04F483B8C1AF8615095CCE7EBDEC0B6C1AE50F4C3650956BA94A5177B0B8910C2186FBADF456C5A883F017113E4DBB534466592017680
311
EB37A96F85D85BF9819029937CE9BF6436DC12BF843D7A002C411100E024CAA628CAE624FA9D723E38FB0DB698FF22E9345A2F11D6C1086C533F45D19F3B0245150F2D1AFCEB1F7ADEA506890D532BEC15386B93397C17F806387A48B5F6875EC0B5F6741A8E6FB6FF1F66BDE742230DD66AD7C4385BFBAD21FB36A65EB4BD
311
6652F95DD69FB9080F0811CE5A8F6E600787B324015FD7470ECBF6C186B5780C146DAB96F608BDFDF8153F6EA7F377841B567DD8F21F46AE957C7A87755A89BBEF413786A7637F7E174E542F4EFE05504B0304140006080800A4546B420A3355BE74010000170400004500000039364433333230462D443841422D34424430
311
2D393343462D3444304539423733383741332F536368656D61732F52656E6465724D6174657269616C536368656D612E786D6CAD93DF6AC23014C6EF7D8A90075895B1BB54D00EA430D968A7B725B6C73690269244C5B75FFED955866C0C7B9593F3E577724EBE9285D660CABA839ECE27C87F6493BFA213E5292E4034A0D6
311
D480629407159E4F486215837A4935047926FB5E8A91CCA5065D2E0CB4A0106B521C345B509A4981D1E1B8E3AC4EF19E720D1829A08D14FC9262A38E363EB9BBCC7CE10819A09BE2CD03F3FEC0A10761A8B1C4B55BF0825EFE86F6644BFA85FABE2A1FCAFB507062707E287305C2BE55FD4F66691413AD1FA83E5353773F38
311
FE29FCBC82761859D64956833F5A7B1B54654715349537180E068919ED331871BA03EBB2D286B6ACA546032244026E4BF9F186A9AD149A489BDE10ECB673E6E8E0F56EF771CCDAFBE03C2E4C64CE06663ECADD01932454BB16224B293950319EC22713A632B26DF9D5C8FB60F2D8BCCBDBCE4912CF0EAC4C72197E963835A7
311
AC6AB7EBEF5AA478FAF43C7BF1C16A1C2CC7C122C5DF3D3904CA3CC2B7E456A12049FC3B85FF723EF902504B010214000A0000080000A4546B423DEE336E79000000790000001B00000000000000000000000000000000006175746F6465736B2D64657369676E2D7061636B6167652E786D6C504B01021400140006080800
311
A4546B42FAA28935A7000000350100001300000000000000000000000000B20000005B436F6E74656E745F54797065735D2E786D6C504B01021400140006080800A4546B4261C43189F80000009701000008000000000000000000000000008A010000636F72652E786D6C504B01021400140006080800A4546B42818D755B
311
7E0000009D0000000700000000000000000000000000A8020000636E782E786D6C504B01021400140006080800A4546B425007ADA42A0100001E0200002D000000000000000000000000004B03000039364433333230462D443841422D344244302D393343462D3444304539423733383741332F636F72652E786D6C504B01
311
021400140006080800A4546B426A77868595000000F50000002C00000000000000000000000000C004000039364433333230462D443841422D344244302D393343462D3444304539423733383741332F636E782E786D6C504B01021400140006080800A4546B42BF6F73C2FB000000A0010000370000000000000000000000
311
00009F05000039364433333230462D443841422D344244302D393343462D3444304539423733383741332F4173736574446174612F636F72652E786D6C504B01021400140006080800A4546B42A0BF74CD76010000860500003600000000000000000000000000EF06000039364433333230462D443841422D344244302D39
311
3343462D3444304539423733383741332F4173736574446174612F636E782E786D6C504B01021400140006080800A4546B425ABD95A484000000200100004F00000000000000000000000000B908000039364433333230462D443841422D344244302D393343462D3444304539423733383741332F4173736574446174612F
311
446566696E6974696F6E4974657261746F7250726F706572746965732E62696E504B01021400140006080800A4546B42314321DEF4000000300200004500000000000000000000000000AA09000039364433333230462D443841422D344244302D393343462D3444304539423733383741332F4173736574446174612F496E
311
7374616E636550726F706572746965732E62696E504B01021400140006080800A4546B425BACBC7951000000570000004700000000000000000000000000010B000039364433333230462D443841422D344244302D393343462D3444304539423733383741332F4173736574446174612F41737365745461626C654F66436F
311
6E74656E74732E62696E504B01021400140006080800A4546B42F865834058000000680000004500000000000000000000000000B70B000039364433333230462D443841422D344244302D393343462D3444304539423733383741332F4173736574446174612F53747265616D56657273696F6E5461626C652E696E66504B
311
01021400140006080800A4546B42BA8DF4DFFA0000009E0100003500000000000000000000000000720C000039364433333230462D443841422D344244302D393343462D3444304539423733383741332F536368656D61732F636F72652E786D6C504B01021400140006080800A4546B422A08C69126010000D30300003400
311
000000000000000000000000BF0D000039364433333230462D443841422D344244302D393343462D3444304539423733383741332F536368656D61732F636E782E786D6C504B01021400140006080800A4546B422F7B2A8D8D0100005E0600003D00000000000000000000000000370F000039364433333230462D44384142
311
2D344244302D393343462D3444304539423733383741332F536368656D61732F436F6D6D6F6E536368656D612E786D6C504B01021400140006080800A4546B427229482E27050000001600003E000000000000000000000000001F11000039364433333230462D443841422D344244302D393343462D344430453942373338
311
3741332F536368656D61732F47656E65726963536368656D612E786D6C504B01021400140006080800A4546B420A3355BE74010000170400004500000000000000000000000000A216000039364433333230462D443841422D344244302D393343462D3444304539423733383741332F536368656D61732F52656E6465724D
311
6174657269616C536368656D612E786D6C504B050600000000110011005A060000791800000000
310
504B03040A0000080000A4546B423DEE336E79000000790000001B0000006175746F6465736B2D64657369676E2D7061636B6167652E786D6C3C3F786D6C2076657273696F6E3D22312E302220656E636F64696E673D227574662D3822203F3E3C666F726D6174733E3C666F726D61743E687474703A2F2F736368656D612E
310
6175746F6465736B2E636F6D2F64657369676E2D7061636B6167652F323030393C2F666F726D61743E3C2F666F726D6174733E504B0304140006080800A4546B42D486FD9CA0000000F4000000130000005B436F6E74656E745F54797065735D2E786D6C7D8EC10E82300C865F65E91D8A1E8C310C0EEA1BF002731658846E
310
D98AC1B77784ABF1D8FE5FBFBF75BBCE937A534CCEB38643598122B6FEE978D0B0485F9C41B54DDD7D022595594E1A469170414C76A4D9A4D207E29CF43ECE46F218070CC6BECC4078ACAA135ACF422C856C0E68EA1BF5669944DDD7BCDE7B1F8E415D77AECB980613C2E4AC91FC167A2B244592486606FC29C8FD7F045B9A
310
EF7053A7E60B504B0304140006080800A4546B42D5738E4AEA0000007C01000008000000636F72652E786D6C8D90D16E83300C457F25F27BC0013A5A14523141BF603F108594452D0922C9B4CF5F68A9B4BDEDC9D6F53DB675F9F97BBE932FBD7AE36C0B2C4320DA2A371A3BB510C3951E819C055F9D0BBF6C40AC9C750B9B
310
0C824FAB8BCB2E296783B621A9D68D7A17A5F73A0051F7D4B4E0D5A79E652663480E7FCB16A96E72D2197B75098ED18CE479C48C699FB91ABD82C0FED4E33020ADB0EA6855553D3D1D70A0FDA5EBEAFA50BF17C585E71B2C7830F3EBBE5AB50C7A0451202B299694B10F864D593778A4F8D620F27CB3FF81E232FE138AC686
310
B2D8DF7D621E044B8F3C0682E75B16A93C824A75CB4DFC00504B0304140006080800A4546B4255019EA25F0000007C00000007000000636E782E786D6C4DCB3B0E80201045D1AD90E915ED2CF8AC45050C11660C8261F98AB1B07AC9C97D42D718D865D3E909258CFD00CCE24AC6E326A164D74DC0B4128928FF326038472B
310
A13128B1252AC747C6BAB984FC68F0B87FE8960A5C09FE86CFB69FBA01504B0304140006080800A4546B42F228B5A166010000020300000C0000006662782F636F72652E786D6C8D52ED8E8320107C15C27F043F7AF61AA4E9C5F609EE05A852CF54C120983EFEAD1F8DD74BD33426486676766747F9FED6366850B6AF8DCE
310
7018308C942E4C59EB2AC3DE5DC816A3BDE0D618F7A70C232D5B95E111C68257D6F86E810AA39DD20E506D4AB580B2EF95C3A868E092E1BEF851AD0CA47750D15F834E165759A9200C80863AC17B67C1009A878C271697F38DD31917DCFBBA5CD8BA8469F5A556160B967FE6EC78642461C98124499293CF0D3B92FC7438A4
310
E926FD8AA213A7A3587057B777778555D2A9128B888531613109C3EF90EDE274C7B6847DEC18E3742C7F10F9AE7C53E46BEDE268B13BCB7A2C42303211FFB685881CEAE5007EA8E0740C115E53C28F41432010B293E7E6BEC715A04115CED80498D2F8951A64E3154C65687A389D59E83C3580CD9EF6895EF479DD033EA0D4
310
1558930EAE67EFC6E97C9EBA44D1294B067743DAD85636ABB9D9E27AAE839ECA0BD318FB8E9A2EABD2254C3AFEBDE217504B0304140006080800A4546B422D2AEF647E0000009D0000000B0000006662782F636E782E786D6C4DCCD10A83201886E15B91FFDC355D85821ACDD97DC4B290990EA76397BF1A1DECE883878F57
310
749FD5A3B74D2F178304723A03B2E11E2717160925CF9801EA944831E6BF1BA030AE56C2CEA0C49262791E34D9792C3E6FEA5D781C78A584717DE1980FFA86EB5E3798D7A6C7841B3A18AADB9635502951FD4ADBEE61F505504B0304140006080800A4546B42682AD11A2D01000015020000310000006662782F4232313839
310
4333392D394643442D344143352D393445412D3139453246453243363638352F636F72652E786D6C8D51CB6EC32010FC15C4293D6083711C3BC244A99B7C417F80D8C44589C1E251E5F30BB523B5B75C58343B333BDA6587C77407DFD23A65740B49862190BA3783D2630B83BFA21A820367D618FF87068116936C61822167
310
A335615EA1DE682FB58FA836835C41E19CF410F4F7F869A1EBBFE42432117C64B85B368BFE264699912CB6238F33E76D0C009621E985FCBD2075D3D10635E7EE0395C76E8B9AF27444A43915E753D15555BD65F922E42C0435AC7235C438EAAAA47DD5248939F36A7AC6EFAD145E0E90179850842922E493E03DDDED718D70
310
B5C798E589FE4F14E6E1455150DAD3628DBBC81CE484E54B83B3C184CBFD19463E66633D48F3364EF66F90E30CE36DB5A335D9B17CE1C60D44D3AA5C4D9D37366E7873BB443A5D9DAB92B33C1D2996DF0BC69A0ECA7F00504B0304140006080800A4546B42A7457BB35501000033030000300000006662782F423231383943
310
33392D394643442D344143352D393445412D3139453246453243363638352F636E782E786D6CBD93CD6EC32010845F0571F70F71E4461126520F7D821E7AC5B049696CB0F8A99AB7EF929034971C2A55BD206B7698597DC27CF7354FE4137C30CE0E94D52D256095D3C61E069AE2BEDA50B213DC3B17EF6C945839C340B34C
310
053F7897962269D8CB34455427638F45F4105CF20A02CAF926999C92130680AD128A308FA035687233E2D71E3CAE82E27822F11DC8CBF31B71E307A818789353046F7287E0F92C4D77264AD42443186850EF30CB5AA6E8348463AD659435ABAF5D0F76FA4922F9C2B532794372F940F34945D9A8468EBCC1A1E0217AA4574C
310
F1B40015725926A36444C8CDD978F1089E8C8DFDBA780D82F7E8EE56FD668361E799E0D1CC501CCA838CA0A958B5ACABDAAE62EC95B5DBEE69DB6EAAB6DFB62D6FB25DF0D1B9A95CC218F06E21CAD9083652C17893C78FF0151FD1C6236BE74FBF0089004AEB85CE2DE32FF9B0BE5BAFFF914F737EDF88CBE35F20BE01504B
310
0304140006080800A4546B42BD1F82FF500700004F1C0000340000006662782F42323138394333392D394643442D344143352D393445412D3139453246453243363638352F6F626A656374732E786D6CED595B6FA3481AFD2B887DD97D3036B69349568451622791359399D644DDDA8748A80C65521B2E5615A4EDFDF57BEA
310
02066CD27827FB360F3636549DEF7EA90FEFE75D9A58EF940B966737B6EB4C6C8B66611EB12CBEB1CB6233BAB2AD9F7D8FE779D158665B1949E98D2D6FDBBE17F3BCDC9A5B11DD9032293A771FEEFE65899066D4B6C2840871638BF095A6C42165914754BC39112988136F768EEBE8856DD89893ED6B07744B38CD0A708AFB
310
19502CCD94DBFE3BB1C7BE3796CF7D4F7E9B55D341AB66FDABC64AEA36972C1305C9C223963A30D3412CCDDCF9F27E7A713DBA98CF67A3F9E5D41DDD3DDC2D47EE4FB3C9E272B1B8BEBDBF067BEB3C4F8C4C11DDD22C82FDF6B6EF7A63F9A416DD68E014D7619E6534548A84AA94585D4046054835D43769FF75A5448DC74A
310
C2C6FF997C6E5868DCEE18A167D54045B47021882157495C5D9BF2E5EB7F437031C429B9A0D2A945C1615DA31E8EA8B0FD8937D6777D6F7DB00513564A0ACA1949AC84AD39E1300A96CA25BEA7371818191C1C50969440594E3F6EFB1622F3C7A1738ACB4D992432326C5F055680F0A385509CB1FF507EE0BEA919F0040B97
310
2C2BAE0C97C57E4B6DFFDA1BAB9BBE272FB3A979A815696D1212C35120A67EDA117421437FB5B4FD5F1ED6BB67990E4E13DFF27C4B79219D4EDA51F105473657A92543D61D6439B901C268A59A9D07A5FC01CDFF86EC71600576E36C37DFCDCDDA82934C6C729EC236D6C41A4DF035B15CF52D7F377E79E37A73DB7A7DFA44
310
984A555DFD797DB66550BA32FC37D4E97BEF70F89CCFCCA3E79024F0E727964141D249AC24C72DA4F6CD7A67FB2B244E247AEC2289EF4264B0FB8E9FDED8C01CAC52859789BA0C1A3534A6438C04B5298F041B3D767A44F5E02C3C98A929629F7A2F3EC55D6F97CFBF3C977C4342FA64627A49372C6305AAE669865A3A6F49
310
846A1772B6955B6DDF0855A70AE780D6DAF446F7DF731E413BC7467A6E1A2935FC0998481A4A5A2BAE3427FFF41008B12FCE658EF27E400192CB02DFC07F6222A44942329A9715DD3A254AEFAED38469346C7FA6ED329B76FC9ED377265B1144DA61454B13DF74AFF2F855E6911E61BEAE7E83D7DAA8F7B87CE0D18F031423
310
BE93227CFD31D6B35A37BA43AE886864B4536B617D280C619EE43C58EF039D334F227F6B051ED2A9B69C44412CAA08AE9253AC650822B6D9940219FA84FDBEAD164D1F993833F7C26A7E77C27A8EBC8D2C40B889E00E8D80A524A6C186447DE49AD46A6CA1207BA039DD24908BBDB3621F90229844343E473567815F7F2A7A
310
9CE442B08C0A54BE93CA6F6A63E22025696B562C4BAB7614CD4490D28224E76840C2F428571530D52D8768427ECC63EDBD1F59AC09FA7FF2084ED095E659C0D0D4EE06E8C2752EA6837887B755D84A8CA4443312EE83EF94C5AFC5004A75485646D4D78E19431C6ECA22C8B724845B0F803D8A1569D40EE89A846FB2120561
310
997C9683089A6C029624651AE0C3329C618684F6302D34C075EE2B688AF68E14251F42E4F262724447771FDD14D820B461097AEF2025DB1EADB712A2EA6CAC5AF906BD2798D665BA0D489A97D9204771665D8F34F05DB34AD881FCCAA6130D68056C007D0FDD7A5D6AAB9C0D574F021C0C8BD71E4DB4B25305A990FA0165A6
310
465CAACCB70F0449B7893E201ED5DB762573EBF0FC98003781FFB904D27C50C19A77945075B6CD7E135A95D9BEE4CC98B1782DD37546D8E9886C95F327528897475DB65F627D75B6595C910528BAA21A198D4EDD6B9E34613FF8A306FFBA7230E5E9815F49DBA5342B88EC489FE48FE40F72BA4CF453D2FB56B22F184CEBF7
310
C7E733E5C18EC1E85F642B49BF9F49C1EC5AC81EED8854E508F5551E72D064C2AD8C17CCFE3AEA34E7237F1D7570AC46FED7672004B5CA7AC657A47F9E71D431B1FC274F3C77FB5FC95ECE7C4C0BAAACD59A5B85D2F5CF3A9ED47553362B9F713C5183951AB5AE6E275B2C24E2AA580CEE12AB4CA801FB38FE9FBB89BEEAAC
310
C919EBC73A3507E77513EE5127D43A1BAB23717654835B69FBA7E9F2F2FEFEDA1DB90FF3C568BE583C8CEE6EAFAF46D753777677FF305FCE6787138A718F3AE1A912E8A36340CAC3C5FC9569D0888551B2C81316619A105931CD718AC14C61C0CC9FA754A80E05C8062B326F1206EC7ED7C3D982AC136A7687AF0453ED44A0
310
0040476558B4EF5B7FC33C558E346F6C4CBA9C377C1947B32D14E01BFB5D0E20432A9C356663720AA9C03B310CFD902C96BD8FDE54FFAF7749DDB44A44BD6448A93072E9FC6104408FB8C5C8AE352151BC99E7E7095EB16391023FD765813E4ECB72B8510BA3C8C0EE5A2833E94B58F66648EF108D1F8BE53A6A4D4B2383C6
310
FB1F3A81461D1584C76A482FF9332CDD2EBF8C311CB456BF5BDBA48C61CBE148234EE1CCA5EC8BE045F00A83B925B2995EFCF3E50BCFF15E2AB51E185CC0FAFBEEEAF21F2F8B3C4DF34CDF7AB9C50130C2DB2DEBF915EFAAA217B47E54BE11102FD3893B7B519378F372205813411D128937DCF0C62567B5A25BE6875F1E55
310
0D6389B13445C743574BCBE445B4B51AE86830ADDFCC598821F90E48468C0AEC4ADA0F87F163B514AC728CD1FDFF02504B0304140006080000A4546B42000000000000000000000000350000006662782F42323138394333392D394643442D344143352D393445412D3139453246453243363638352F76657274696365732E
310
62696E504B0304140006080800A4546B42F270F1330600000004000000360000006662782F42323138394333392D394643442D344143352D393445412D3139453246453243363638352F747269616E676C65732E62696E636660600000504B0304140006080000A4546B42000000000000000000000000370000006662782F
310
42323138394333392D394643442D344143352D393445412D3139453246453243363638352F617474726962757465732E62696E504B0304140006080800A4546B42B28BD8DE8F00000041010000360000006662782F42323138394333392D394643442D344143352D393445412D3139453246453243363638352F6469726563
310
746F72792E786D6C858F410EC2201045AF4266AF15DDB800BA74E7C21B903225242D6328188F2FA5C4183471359997F9FF81E89FF3C41E1816475E02DF1F80A11FC8386F25A438EECEC07A250251FC3803E6F58C12560C4AD840E95E91C151A72936F496F35732D860FE635F62C8F2DA16B505C545B74125BAA2FA9E05D7CC
310
053D063734D5A7665FD55B6B8D15D5F1BFEAFD8490FFA45E504B0304140006080800A4546B42519E50EDFC000000A00100003B0000006662782F42323138394333392D394643442D344143352D393445412D3139453246453243363638352F7265736F75726365732F636F72652E786D6C8D504B6E833010BD0A9ABDC10652
310
12641C51114ED00B586642AC041BF953F5F8350995DA5D3733A3F7D13C3D7EFE5A1ED9273AAFADE980E5143234CA4EDACC1DC4702547C8CE823B6BC32F1964462ED8C10683E0B3B371DD21654D4013126AEC843B28BDC700997AA4A303AF6EB8C85CC69014FE9EAF52DDE58C39CB139D7482FBE05280ECF5649B201C7A1B9D
310
42CF8B172B788C7ADA357A4A3FF555A3034187D3402FC3486A5AF7A4AEEB819C0EF44286B1EF9BE6D0BC97E5C88BCD2C78D0CB4F46E550069C40949455845684B10F46DBAA69E991D0B796525E6CF23FA6B84EFF34456D4255EE715F360F82A5204F42F062EB2BAD6799696FDD8A6F504B010214000A0000080000A4546B42
310
3DEE336E79000000790000001B00000000000000000000000000000000006175746F6465736B2D64657369676E2D7061636B6167652E786D6C504B01021400140006080800A4546B42D486FD9CA0000000F40000001300000000000000000000000000B20000005B436F6E74656E745F54797065735D2E786D6C504B010214
310
00140006080800A4546B42D5738E4AEA0000007C010000080000000000000000000000000083010000636F72652E786D6C504B01021400140006080800A4546B4255019EA25F0000007C000000070000000000000000000000000093020000636E782E786D6C504B01021400140006080800A4546B42F228B5A16601000002
310
0300000C00000000000000000000000000170300006662782F636F72652E786D6C504B01021400140006080800A4546B422D2AEF647E0000009D0000000B00000000000000000000000000A70400006662782F636E782E786D6C504B01021400140006080800A4546B42682AD11A2D01000015020000310000000000000000
310
00000000004E0500006662782F42323138394333392D394643442D344143352D393445412D3139453246453243363638352F636F72652E786D6C504B01021400140006080800A4546B42A7457BB355010000330300003000000000000000000000000000CA0600006662782F42323138394333392D394643442D344143352D
310
393445412D3139453246453243363638352F636E782E786D6C504B01021400140006080800A4546B42BD1F82FF500700004F1C000034000000000000000000000000006D0800006662782F42323138394333392D394643442D344143352D393445412D3139453246453243363638352F6F626A656374732E786D6C504B0102
310
1400140006080000A4546B4200000000000000000000000035000000000000000000000000000F1000006662782F42323138394333392D394643442D344143352D393445412D3139453246453243363638352F76657274696365732E62696E504B01021400140006080800A4546B42F270F133060000000400000036000000
310
00000000000000000000621000006662782F42323138394333392D394643442D344143352D393445412D3139453246453243363638352F747269616E676C65732E62696E504B01021400140006080000A4546B420000000000000000000000003700000000000000000000000000BC1000006662782F42323138394333392D
310
394643442D344143352D393445412D3139453246453243363638352F617474726962757465732E62696E504B01021400140006080800A4546B42B28BD8DE8F000000410100003600000000000000000000000000111100006662782F42323138394333392D394643442D344143352D393445412D3139453246453243363638
310
352F6469726563746F72792E786D6C504B01021400140006080800A4546B42519E50EDFC000000A00100003B00000000000000000000000000F41100006662782F42323138394333392D394643442D344143352D393445412D3139453246453243363638352F7265736F75726365732F636F72652E786D6C504B0506000000
310
000E000E0080040000491300000000
  0
XRECORD
  5
17
102
{ACAD_REACTORS
330
12
102
}
330
12
100
AcDbXrecord
280
     1
270
     1
271
     1
  0
XRECORD
  5
16
102
{ACAD_REACTORS
330
12
102
}
330
12
100
AcDbXrecord
280
     1
270
     1
271
     1
  0
XRECORD
  5
18
102
{ACAD_REACTORS
330
12
102
}
330
12
100
AcDbXrecord
280
     1
270
     1
271
     1
  0
XRECORD
  5
15
102
{ACAD_REACTORS
330
12
102
}
330
12
100
AcDbXrecord
280
     1
270
     1
271
     1
  0
XRECORD
  5
94A
102
{ACAD_REACTORS
330
22
102
}
330
22
100
AcDbXrecord
280
     1
102
MATERIAL
148
0.0
149
0.0
149
0.0
 93
        0
 94
      127
282
     0
 72
     0
 77
     0
171
     0
175
     0
179
     0
273
     0
  0
XRECORD
  5
24
102
{ACAD_REACTORS
330
22
102
}
330
22
100
AcDbXrecord
280
     1
270
     1
271
     1
  0
XRECORD
  5
23
102
{ACAD_REACTORS
330
22
102
}
330
22
100
AcDbXrecord
280
     1
270
     1
271
     1
  0
XRECORD
  5
27
102
{ACAD_REACTORS
330
22
102
}
330
22
100
AcDbXrecord
280
     1
270
     1
271
     1
  0
XRECORD
  5
26
102
{ACAD_REACTORS
330
22
102
}
330
22
100
AcDbXrecord
280
     1
270
     1
271
     1
  0
XRECORD
  5
28
102
{ACAD_REACTORS
330
22
102
}
330
22
100
AcDbXrecord
280
     1
270
     1
271
     1
  0
XRECORD
  5
25
102
{ACAD_REACTORS
330
22
102
}
330
22
100
AcDbXrecord
280
     1
270
     1
271
     1
  0
XRECORD
  5
97E
102
{ACAD_REACTORS
330
97D
102
}
330
97D
100
AcDbXrecord
280
     1
102
ACAD_ROUNDTRIP_2012_MLEADER_STYLE
298
     1
  0
CELLSTYLEMAP
  5
8EF
102
{ACAD_REACTORS
330
8EE
102
}
330
8EE
100
AcDbCellStyleMap
 90
        3
300
CELLSTYLE
  1
TABLEFORMAT_BEGIN
 90
        5
170
     1
 91
        0
 92
    32768
 62
   257
 93
        1
300
CONTENTFORMAT
  1
CONTENTFORMAT_BEGIN
 90
        0
 91
        0
 92
      512
 93
        0
300

 40
0.0
140
1.0
 94
        5
 62
     0
340
55
144
0.25
309
CONTENTFORMAT_END
171
     0
 94
        0
309
TABLEFORMAT_END
  1
CELLSTYLE_BEGIN
 90
        1
 91
        1
300
_TITLE
309
CELLSTYLE_END
300
CELLSTYLE
  1
TABLEFORMAT_BEGIN
 90
        5
170
     1
 91
        0
 92
        0
 62
   257
 93
        1
300
CONTENTFORMAT
  1
CONTENTFORMAT_BEGIN
 90
        0
 91
        0
 92
      512
 93
        0
300

 40
0.0
140
1.0
 94
        5
 62
     0
340
55
144
0.18
309
CONTENTFORMAT_END
171
     0
 94
        0
309
TABLEFORMAT_END
  1
CELLSTYLE_BEGIN
 90
        2
 91
        1
300
_HEADER
309
CELLSTYLE_END
300
CELLSTYLE
  1
TABLEFORMAT_BEGIN
 90
        5
170
     1
 91
        0
 92
        0
 62
   257
 93
        1
300
CONTENTFORMAT
  1
CONTENTFORMAT_BEGIN
 90
        0
 91
        0
 92
      512
 93
        0
300

 40
0.0
140
1.0
 94
        2
 62
     0
340
55
144
0.18
309
CONTENTFORMAT_END
171
     0
 94
        0
309
TABLEFORMAT_END
  1
CELLSTYLE_BEGIN
 90
        3
 91
        2
300
_DATA
309
CELLSTYLE_END
  0
XRECORD
  5
97B
102
{ACAD_REACTORS
330
8EE
102
}
330
8EE
100
AcDbXrecord
280
     1
102
ACAD_ROUNDTRIP_PRE2007_TABLESTYLE
 90
      512
 91
        0
  1

 92
      512
 93
        0
  2

 94
      512
 95
        0
  3

  0
XRECORD
  5
956
102
{ACAD_REACTORS
330
955
102
}
330
955
100
AcDbXrecord
280
     1
102
RTVSPost2010Prop28
280
     1
102
RTVSPost2010PropOp28
 70
     1
102
RTVSPost2010Prop29
280
     1
102
RTVSPost2010PropOp29
 70
     1
102
RTVSPost2010Prop30
280
     0
102
RTVSPost2010PropOp30
 70
     1
102
RTVSPost2010Prop31
280
     0
102
RTVSPost2010PropOp31
 70
     1
102
RTVSPost2010Prop32
280
     0
102
RTVSPost2010PropOp32
 70
     1
102
RTVSPost2010Prop33
280
     0
102
RTVSPost2010PropOp33
 70
     1
102
RTVSPost2010Prop34
280
     0
102
RTVSPost2010PropOp34
 70
     1
102
RTVSPost2010Prop35
280
     0
102
RTVSPost2010PropOp35
 70
     1
102
RTVSPost2010Prop36
280
     0
102
RTVSPost2010PropOp36
 70
     1
102
RTVSPost2010Prop37
 90
       50
102
RTVSPost2010PropOp37
 70
     1
102
RTVSPost2010Prop38
140
0.0
102
RTVSPost2010PropOp38
 70
     1
102
RTVSPost2010Prop39
140
1.0
102
RTVSPost2010PropOp39
 70
     1
102
RTVSPost2010Prop40
 90
        0
102
RTVSPost2010PropOp40
 70
     1
102
RTVSPost2010Prop41ColorIndex
 90
       18
102
RTVSPost2010Prop41ColorRGB
 90
        0
102
RTVSPost2010PropOp41
 70
     1
102
RTVSPost2010Prop42
 90
       50
102
RTVSPost2010PropOp42
 70
     1
102
RTVSPost2010Prop43
 90
        3
102
RTVSPost2010PropOp43
 70
     1
102
RTVSPost2010Prop44ColorIndex
 90
        5
102
RTVSPost2010Prop44ColorRGB
 90
      255
102
RTVSPost2010PropOp44
 70
     1
102
RTVSPost2010Prop45
280
     0
102
RTVSPost2010PropOp45
 70
     1
102
RTVSPost2010Prop46
 90
       50
102
RTVSPost2010PropOp46
 70
     1
102
RTVSPost2010Prop47
 90
       50
102
RTVSPost2010PropOp47
 70
     1
102
RTVSPost2010Prop48
 90
       50
102
RTVSPost2010PropOp48
 70
     1
102
RTVSPost2010Prop49
280
     0
102
RTVSPost2010PropOp49
 70
     1
102
RTVSPost2010Prop50
 90
       50
102
RTVSPost2010PropOp50
 70
     1
102
RTVSPost2010Prop51ColorIndex
 90
      256
102
RTVSPost2010Prop51ColorRGB
 90
-16777216
102
RTVSPost2010PropOp51
 70
     0
102
RTVSPost2010Prop52
140
1.0
102
RTVSPost2010PropOp52
 70
     0
102
RTVSPost2010Prop53
 90
        2
102
RTVSPost2010PropOp53
 70
     1
102
RTVSPost2010Prop54
  1
strokes_ogs.tif
102
RTVSPost2010PropOp54
 70
     1
102
RTVSPost2010Prop55
280
     0
102
RTVSPost2010PropOp55
 70
     1
102
RTVSPost2010Prop56
140
1.0
102
RTVSPost2010PropOp56
 70
     1
102
RTVSPost2010Prop57
140
1.0
102
RTVSPost2010PropOp57
 70
     1
102
RTVSPropertyOp0
 70
     1
102
RTVSPropertyOp1
 70
     1
102
RTVSPropertyOp2
 70
     1
102
RTVSPropertyOp3
 70
     1
102
RTVSPropertyOp4
 70
     1
102
RTVSPropertyOp5
 70
     1
102
RTVSPropertyOp6
 70
     1
102
RTVSPropertyOp7
 70
     1
102
RTVSPropertyOp8
 70
     1
102
RTVSPropertyOp9
 70
     1
102
RTVSPropertyOp10
 70
     1
102
RTVSPropertyOp11
 70
     1
102
RTVSPropertyOp12
 70
     1
102
RTVSPropertyOp13
 70
     1
102
RTVSPropertyOp14
 70
     1
102
RTVSPropertyOp15
 70
     1
102
RTVSPropertyOp16
 70
     1
102
RTVSPropertyOp17
 70
     1
102
RTVSPropertyOp18
 70
     1
102
RTVSPropertyOp19
 70
     1
102
RTVSPropertyOp20
 70
     1
102
RTVSPropertyOp21
 70
     1
102
RTVSPropertyOp22
 70
     1
102
RTVSPropertyOp23
 70
     1
102
RTVSPropertyOp24
 70
     1
102
RTVSPropertyOp25
 70
     1
102
RTVSPropertyOp26
 70
     1
102
RTVSPropertyOp27
 70
     1
102
RTVSPropertyOp28
 70
     1
102
RTVSPropertyOp29
 70
     1
102
RTVSPropertyOp30
 70
     1
102
RTVSPropertyOp31
 70
     1
102
RTVSPropertyOp32
 70
     1
102
RTVSPropertyOp33
 70
     1
102
RTVSPropertyOp34
 70
     1
102
RTVSPropertyOp35
 70
     1
102
RTVSPropertyOp36
 70
     1
102
RTVSPropertyOp37
 70
     1
102
RTVSPropertyOp38
 70
     1
102
RTVSPropertyOp39
 70
     1
102
RTVSPropertyOp40
 70
     1
102
RTVSPropertyOp41
 70
     1
102
RTVSPropertyOp42
 70
     1
102
RTVSPropertyOp43
 70
     1
102
RTVSPropertyOp44
 70
     1
102
RTVSPropertyOp45
 70
     1
102
RTVSPropertyOp46
 70
     1
102
RTVSPropertyOp47
 70
     1
102
RTVSPropertyOp48
 70
     1
102
RTVSPropertyOp49
 70
     1
102
RTVSPropertyOp50
 70
     1
102
RTVSPropertyOp51
 70
     0
102
RTVSPropertyOp52
 70
     0
102
RTVSPropertyOp53
 70
     1
102
RTVSPropertyOp54
 70
     1
102
RTVSPropertyOp55
 70
     1
102
RTVSPropertyOp56
 70
     1
102
RTVSPropertyOp57
 70
     1
102
RTVSPropertyOp58
 70
     1
102
RTVSPropertyOp59
 70
     1
102
RTVSPropertyOp60
 70
     1
102
RTVSPropertyOp61
 70
     1
102
RTVSPropertyOp62
 70
     1
  0
XRECORD
  5
954
102
{ACAD_REACTORS
330
953
102
}
330
953
100
AcDbXrecord
280
     1
102
RTVSPost2010Prop28
280
     0
102
RTVSPost2010PropOp28
 70
     1
102
RTVSPost2010Prop29
280
     1
102
RTVSPost2010PropOp29
 70
     1
102
RTVSPost2010Prop30
280
     1
102
RTVSPost2010PropOp30
 70
     1
102
RTVSPost2010Prop31
280
     0
102
RTVSPost2010PropOp31
 70
     1
102
RTVSPost2010Prop32
280
     0
102
RTVSPost2010PropOp32
 70
     1
102
RTVSPost2010Prop33
280
     0
102
RTVSPost2010PropOp33
 70
     1
102
RTVSPost2010Prop34
280
     0
102
RTVSPost2010PropOp34
 70
     1
102
RTVSPost2010Prop35
280
     0
102
RTVSPost2010PropOp35
 70
     1
102
RTVSPost2010Prop36
280
     0
102
RTVSPost2010PropOp36
 70
     1
102
RTVSPost2010Prop37
 90
       50
102
RTVSPost2010PropOp37
 70
     1
102
RTVSPost2010Prop38
140
0.0
102
RTVSPost2010PropOp38
 70
     1
102
RTVSPost2010Prop39
140
1.0
102
RTVSPost2010PropOp39
 70
     1
102
RTVSPost2010Prop40
 90
        0
102
RTVSPost2010PropOp40
 70
     1
102
RTVSPost2010Prop41ColorIndex
 90
       18
102
RTVSPost2010Prop41ColorRGB
 90
        0
102
RTVSPost2010PropOp41
 70
     1
102
RTVSPost2010Prop42
 90
       50
102
RTVSPost2010PropOp42
 70
     1
102
RTVSPost2010Prop43
 90
        3
102
RTVSPost2010PropOp43
 70
     1
102
RTVSPost2010Prop44ColorIndex
 90
        5
102
RTVSPost2010Prop44ColorRGB
 90
      255
102
RTVSPost2010PropOp44
 70
     1
102
RTVSPost2010Prop45
280
     0
102
RTVSPost2010PropOp45
 70
     1
102
RTVSPost2010Prop46
 90
       50
102
RTVSPost2010PropOp46
 70
     1
102
RTVSPost2010Prop47
 90
       50
102
RTVSPost2010PropOp47
 70
     1
102
RTVSPost2010Prop48
 90
       50
102
RTVSPost2010PropOp48
 70
     1
102
RTVSPost2010Prop49
280
     0
102
RTVSPost2010PropOp49
 70
     1
102
RTVSPost2010Prop50
 90
       50
102
RTVSPost2010PropOp50
 70
     1
102
RTVSPost2010Prop51ColorIndex
 90
      256
102
RTVSPost2010Prop51ColorRGB
 90
-16777216
102
RTVSPost2010PropOp51
 70
     0
102
RTVSPost2010Prop52
140
1.0
102
RTVSPost2010PropOp52
 70
     0
102
RTVSPost2010Prop53
 90
        2
102
RTVSPost2010PropOp53
 70
     1
102
RTVSPost2010Prop54
  1
strokes_ogs.tif
102
RTVSPost2010PropOp54
 70
     1
102
RTVSPost2010Prop55
280
     0
102
RTVSPost2010PropOp55
 70
     1
102
RTVSPost2010Prop56
140
1.0
102
RTVSPost2010PropOp56
 70
     1
102
RTVSPost2010Prop57
140
1.0
102
RTVSPost2010PropOp57
 70
     1
102
RTVSPropertyOp0
 70
     1
102
RTVSPropertyOp1
 70
     1
102
RTVSPropertyOp2
 70
     1
102
RTVSPropertyOp3
 70
     1
102
RTVSPropertyOp4
 70
     1
102
RTVSPropertyOp5
 70
     1
102
RTVSPropertyOp6
 70
     1
102
RTVSPropertyOp7
 70
     1
102
RTVSPropertyOp8
 70
     1
102
RTVSPropertyOp9
 70
     1
102
RTVSPropertyOp10
 70
     1
102
RTVSPropertyOp11
 70
     1
102
RTVSPropertyOp12
 70
     1
102
RTVSPropertyOp13
 70
     1
102
RTVSPropertyOp14
 70
     1
102
RTVSPropertyOp15
 70
     1
102
RTVSPropertyOp16
 70
     1
102
RTVSPropertyOp17
 70
     1
102
RTVSPropertyOp18
 70
     1
102
RTVSPropertyOp19
 70
     1
102
RTVSPropertyOp20
 70
     1
102
RTVSPropertyOp21
 70
     1
102
RTVSPropertyOp22
 70
     1
102
RTVSPropertyOp23
 70
     1
102
RTVSPropertyOp24
 70
     1
102
RTVSPropertyOp25
 70
     1
102
RTVSPropertyOp26
 70
     1
102
RTVSPropertyOp27
 70
     1
102
RTVSPropertyOp28
 70
     1
102
RTVSPropertyOp29
 70
     1
102
RTVSPropertyOp30
 70
     1
102
RTVSPropertyOp31
 70
     1
102
RTVSPropertyOp32
 70
     1
102
RTVSPropertyOp33
 70
     1
102
RTVSPropertyOp34
 70
     1
102
RTVSPropertyOp35
 70
     1
102
RTVSPropertyOp36
 70
     1
102
RTVSPropertyOp37
 70
     1
102
RTVSPropertyOp38
 70
     1
102
RTVSPropertyOp39
 70
     1
102
RTVSPropertyOp40
 70
     1
102
RTVSPropertyOp41
 70
     1
102
RTVSPropertyOp42
 70
     1
102
RTVSPropertyOp43
 70
     1
102
RTVSPropertyOp44
 70
     1
102
RTVSPropertyOp45
 70
     1
102
RTVSPropertyOp46
 70
     1
102
RTVSPropertyOp47
 70
     1
102
RTVSPropertyOp48
 70
     1
102
RTVSPropertyOp49
 70
     1
102
RTVSPropertyOp50
 70
     1
102
RTVSPropertyOp51
 70
     0
102
RTVSPropertyOp52
 70
     0
102
RTVSPropertyOp53
 70
     1
102
RTVSPropertyOp54
 70
     1
102
RTVSPropertyOp55
 70
     1
102
RTVSPropertyOp56
 70
     1
102
RTVSPropertyOp57
 70
     1
102
RTVSPropertyOp58
 70
     1
102
RTVSPropertyOp59
 70
     1
102
RTVSPropertyOp60
 70
     1
102
RTVSPropertyOp61
 70
     1
102
RTVSPropertyOp62
 70
     1
  0
XRECORD
  5
962
102
{ACAD_REACTORS
330
961
102
}
330
961
100
AcDbXrecord
280
     1
102
RTVSPost2010Prop28
280
     0
102
RTVSPost2010PropOp28
 70
     1
102
RTVSPost2010Prop29
280
     1
102
RTVSPost2010PropOp29
 70
     1
102
RTVSPost2010Prop30
280
     1
102
RTVSPost2010PropOp30
 70
     1
102
RTVSPost2010Prop31
280
     0
102
RTVSPost2010PropOp31
 70
     1
102
RTVSPost2010Prop32
280
     0
102
RTVSPost2010PropOp32
 70
     1
102
RTVSPost2010Prop33
280
     0
102
RTVSPost2010PropOp33
 70
     1
102
RTVSPost2010Prop34
280
     0
102
RTVSPost2010PropOp34
 70
     1
102
RTVSPost2010Prop35
280
     0
102
RTVSPost2010PropOp35
 70
     1
102
RTVSPost2010Prop36
280
     0
102
RTVSPost2010PropOp36
 70
     1
102
RTVSPost2010Prop37
 90
       50
102
RTVSPost2010PropOp37
 70
     1
102
RTVSPost2010Prop38
140
0.0
102
RTVSPost2010PropOp38
 70
     1
102
RTVSPost2010Prop39
140
1.0
102
RTVSPost2010PropOp39
 70
     1
102
RTVSPost2010Prop40
 90
        0
102
RTVSPost2010PropOp40
 70
     1
102
RTVSPost2010Prop41ColorIndex
 90
       18
102
RTVSPost2010Prop41ColorRGB
 90
        0
102
RTVSPost2010PropOp41
 70
     1
102
RTVSPost2010Prop42
 90
       50
102
RTVSPost2010PropOp42
 70
     1
102
RTVSPost2010Prop43
 90
        3
102
RTVSPost2010PropOp43
 70
     1
102
RTVSPost2010Prop44ColorIndex
 90
        5
102
RTVSPost2010Prop44ColorRGB
 90
      255
102
RTVSPost2010PropOp44
 70
     1
102
RTVSPost2010Prop45
280
     0
102
RTVSPost2010PropOp45
 70
     1
102
RTVSPost2010Prop46
 90
       50
102
RTVSPost2010PropOp46
 70
     1
102
RTVSPost2010Prop47
 90
       50
102
RTVSPost2010PropOp47
 70
     1
102
RTVSPost2010Prop48
 90
       50
102
RTVSPost2010PropOp48
 70
     1
102
RTVSPost2010Prop49
280
     0
102
RTVSPost2010PropOp49
 70
     1
102
RTVSPost2010Prop50
 90
       50
102
RTVSPost2010PropOp50
 70
     1
102
RTVSPost2010Prop51ColorIndex
 90
      256
102
RTVSPost2010Prop51ColorRGB
 90
-16777216
102
RTVSPost2010PropOp51
 70
     0
102
RTVSPost2010Prop52
140
1.0
102
RTVSPost2010PropOp52
 70
     0
102
RTVSPost2010Prop53
 90
        2
102
RTVSPost2010PropOp53
 70
     1
102
RTVSPost2010Prop54
  1
strokes_ogs.tif
102
RTVSPost2010PropOp54
 70
     1
102
RTVSPost2010Prop55
280
     0
102
RTVSPost2010PropOp55
 70
     1
102
RTVSPost2010Prop56
140
1.0
102
RTVSPost2010PropOp56
 70
     1
102
RTVSPost2010Prop57
140
1.0
102
RTVSPost2010PropOp57
 70
     1
102
RTVSPropertyOp0
 70
     1
102
RTVSPropertyOp1
 70
     1
102
RTVSPropertyOp2
 70
     1
102
RTVSPropertyOp3
 70
     1
102
RTVSPropertyOp4
 70
     1
102
RTVSPropertyOp5
 70
     1
102
RTVSPropertyOp6
 70
     1
102
RTVSPropertyOp7
 70
     1
102
RTVSPropertyOp8
 70
     1
102
RTVSPropertyOp9
 70
     1
102
RTVSPropertyOp10
 70
     1
102
RTVSPropertyOp11
 70
     1
102
RTVSPropertyOp12
 70
     1
102
RTVSPropertyOp13
 70
     1
102
RTVSPropertyOp14
 70
     1
102
RTVSPropertyOp15
 70
     1
102
RTVSPropertyOp16
 70
     1
102
RTVSPropertyOp17
 70
     1
102
RTVSPropertyOp18
 70
     1
102
RTVSPropertyOp19
 70
     1
102
RTVSPropertyOp20
 70
     1
102
RTVSPropertyOp21
 70
     1
102
RTVSPropertyOp22
 70
     1
102
RTVSPropertyOp23
 70
     1
102
RTVSPropertyOp24
 70
     1
102
RTVSPropertyOp25
 70
     1
102
RTVSPropertyOp26
 70
     1
102
RTVSPropertyOp27
 70
     1
102
RTVSPropertyOp28
 70
     1
102
RTVSPropertyOp29
 70
     1
102
RTVSPropertyOp30
 70
     1
102
RTVSPropertyOp31
 70
     1
102
RTVSPropertyOp32
 70
     1
102
RTVSPropertyOp33
 70
     1
102
RTVSPropertyOp34
 70
     1
102
RTVSPropertyOp35
 70
     1
102
RTVSPropertyOp36
 70
     1
102
RTVSPropertyOp37
 70
     1
102
RTVSPropertyOp38
 70
     1
102
RTVSPropertyOp39
 70
     1
102
RTVSPropertyOp40
 70
     1
102
RTVSPropertyOp41
 70
     1
102
RTVSPropertyOp42
 70
     1
102
RTVSPropertyOp43
 70
     1
102
RTVSPropertyOp44
 70
     1
102
RTVSPropertyOp45
 70
     1
102
RTVSPropertyOp46
 70
     1
102
RTVSPropertyOp47
 70
     1
102
RTVSPropertyOp48
 70
     1
102
RTVSPropertyOp49
 70
     1
102
RTVSPropertyOp50
 70
     1
102
RTVSPropertyOp51
 70
     0
102
RTVSPropertyOp52
 70
     0
102
RTVSPropertyOp53
 70
     1
102
RTVSPropertyOp54
 70
     1
102
RTVSPropertyOp55
 70
     1
102
RTVSPropertyOp56
 70
     1
102
RTVSPropertyOp57
 70
     1
102
RTVSPropertyOp58
 70
     1
102
RTVSPropertyOp59
 70
     1
102
RTVSPropertyOp60
 70
     1
102
RTVSPropertyOp61
 70
     1
102
RTVSPropertyOp62
 70
     1
  0
XRECORD
  5
96A
102
{ACAD_REACTORS
330
969
102
}
330
969
100
AcDbXrecord
280
     1
102
RTVSPost2010Prop28
280
     0
102
RTVSPost2010PropOp28
 70
     1
102
RTVSPost2010Prop29
280
     1
102
RTVSPost2010PropOp29
 70
     1
102
RTVSPost2010Prop30
280
     1
102
RTVSPost2010PropOp30
 70
     1
102
RTVSPost2010Prop31
280
     0
102
RTVSPost2010PropOp31
 70
     1
102
RTVSPost2010Prop32
280
     0
102
RTVSPost2010PropOp32
 70
     1
102
RTVSPost2010Prop33
280
     0
102
RTVSPost2010PropOp33
 70
     1
102
RTVSPost2010Prop34
280
     0
102
RTVSPost2010PropOp34
 70
     1
102
RTVSPost2010Prop35
280
     0
102
RTVSPost2010PropOp35
 70
     1
102
RTVSPost2010Prop36
280
     0
102
RTVSPost2010PropOp36
 70
     1
102
RTVSPost2010Prop37
 90
       50
102
RTVSPost2010PropOp37
 70
     1
102
RTVSPost2010Prop38
140
0.0
102
RTVSPost2010PropOp38
 70
     1
102
RTVSPost2010Prop39
140
1.0
102
RTVSPost2010PropOp39
 70
     1
102
RTVSPost2010Prop40
 90
        0
102
RTVSPost2010PropOp40
 70
     1
102
RTVSPost2010Prop41ColorIndex
 90
       18
102
RTVSPost2010Prop41ColorRGB
 90
        0
102
RTVSPost2010PropOp41
 70
     1
102
RTVSPost2010Prop42
 90
       50
102
RTVSPost2010PropOp42
 70
     1
102
RTVSPost2010Prop43
 90
        3
102
RTVSPost2010PropOp43
 70
     1
102
RTVSPost2010Prop44ColorIndex
 90
        5
102
RTVSPost2010Prop44ColorRGB
 90
      255
102
RTVSPost2010PropOp44
 70
     1
102
RTVSPost2010Prop45
280
     0
102
RTVSPost2010PropOp45
 70
     1
102
RTVSPost2010Prop46
 90
       50
102
RTVSPost2010PropOp46
 70
     1
102
RTVSPost2010Prop47
 90
       50
102
RTVSPost2010PropOp47
 70
     1
102
RTVSPost2010Prop48
 90
       50
102
RTVSPost2010PropOp48
 70
     1
102
RTVSPost2010Prop49
280
     0
102
RTVSPost2010PropOp49
 70
     1
102
RTVSPost2010Prop50
 90
       50
102
RTVSPost2010PropOp50
 70
     1
102
RTVSPost2010Prop51ColorIndex
 90
      256
102
RTVSPost2010Prop51ColorRGB
 90
-16777216
102
RTVSPost2010PropOp51
 70
     0
102
RTVSPost2010Prop52
140
1.0
102
RTVSPost2010PropOp52
 70
     0
102
RTVSPost2010Prop53
 90
        2
102
RTVSPost2010PropOp53
 70
     1
102
RTVSPost2010Prop54
  1
strokes_ogs.tif
102
RTVSPost2010PropOp54
 70
     1
102
RTVSPost2010Prop55
280
     0
102
RTVSPost2010PropOp55
 70
     1
102
RTVSPost2010Prop56
140
1.0
102
RTVSPost2010PropOp56
 70
     1
102
RTVSPost2010Prop57
140
1.0
102
RTVSPost2010PropOp57
 70
     1
102
RTVSPropertyOp0
 70
     1
102
RTVSPropertyOp1
 70
     1
102
RTVSPropertyOp2
 70
     1
102
RTVSPropertyOp3
 70
     1
102
RTVSPropertyOp4
 70
     1
102
RTVSPropertyOp5
 70
     1
102
RTVSPropertyOp6
 70
     1
102
RTVSPropertyOp7
 70
     1
102
RTVSPropertyOp8
 70
     1
102
RTVSPropertyOp9
 70
     1
102
RTVSPropertyOp10
 70
     1
102
RTVSPropertyOp11
 70
     1
102
RTVSPropertyOp12
 70
     1
102
RTVSPropertyOp13
 70
     1
102
RTVSPropertyOp14
 70
     1
102
RTVSPropertyOp15
 70
     1
102
RTVSPropertyOp16
 70
     1
102
RTVSPropertyOp17
 70
     1
102
RTVSPropertyOp18
 70
     1
102
RTVSPropertyOp19
 70
     1
102
RTVSPropertyOp20
 70
     1
102
RTVSPropertyOp21
 70
     1
102
RTVSPropertyOp22
 70
     1
102
RTVSPropertyOp23
 70
     1
102
RTVSPropertyOp24
 70
     1
102
RTVSPropertyOp25
 70
     1
102
RTVSPropertyOp26
 70
     1
102
RTVSPropertyOp27
 70
     1
102
RTVSPropertyOp28
 70
     1
102
RTVSPropertyOp29
 70
     1
102
RTVSPropertyOp30
 70
     1
102
RTVSPropertyOp31
 70
     1
102
RTVSPropertyOp32
 70
     1
102
RTVSPropertyOp33
 70
     1
102
RTVSPropertyOp34
 70
     1
102
RTVSPropertyOp35
 70
     1
102
RTVSPropertyOp36
 70
     1
102
RTVSPropertyOp37
 70
     1
102
RTVSPropertyOp38
 70
     1
102
RTVSPropertyOp39
 70
     1
102
RTVSPropertyOp40
 70
     1
102
RTVSPropertyOp41
 70
     1
102
RTVSPropertyOp42
 70
     1
102
RTVSPropertyOp43
 70
     1
102
RTVSPropertyOp44
 70
     1
102
RTVSPropertyOp45
 70
     1
102
RTVSPropertyOp46
 70
     1
102
RTVSPropertyOp47
 70
     1
102
RTVSPropertyOp48
 70
     1
102
RTVSPropertyOp49
 70
     1
102
RTVSPropertyOp50
 70
     1
102
RTVSPropertyOp51
 70
     0
102
RTVSPropertyOp52
 70
     0
102
RTVSPropertyOp53
 70
     1
102
RTVSPropertyOp54
 70
     1
102
RTVSPropertyOp55
 70
     1
102
RTVSPropertyOp56
 70
     1
102
RTVSPropertyOp57
 70
     1
102
RTVSPropertyOp58
 70
     1
102
RTVSPropertyOp59
 70
     1
102
RTVSPropertyOp60
 70
     1
102
RTVSPropertyOp61
 70
     1
102
RTVSPropertyOp62
 70
     1
  0
XRECORD
  5
95C
102
{ACAD_REACTORS
330
95B
102
}
330
95B
100
AcDbXrecord
280
     1
102
RTVSPost2010Prop28
280
     0
102
RTVSPost2010PropOp28
 70
     1
102
RTVSPost2010Prop29
280
     1
102
RTVSPost2010PropOp29
 70
     1
102
RTVSPost2010Prop30
280
     1
102
RTVSPost2010PropOp30
 70
     1
102
RTVSPost2010Prop31
280
     0
102
RTVSPost2010PropOp31
 70
     1
102
RTVSPost2010Prop32
280
     0
102
RTVSPost2010PropOp32
 70
     1
102
RTVSPost2010Prop33
280
     0
102
RTVSPost2010PropOp33
 70
     1
102
RTVSPost2010Prop34
280
     0
102
RTVSPost2010PropOp34
 70
     1
102
RTVSPost2010Prop35
280
     0
102
RTVSPost2010PropOp35
 70
     1
102
RTVSPost2010Prop36
280
     0
102
RTVSPost2010PropOp36
 70
     1
102
RTVSPost2010Prop37
 90
       50
102
RTVSPost2010PropOp37
 70
     1
102
RTVSPost2010Prop38
140
0.0
102
RTVSPost2010PropOp38
 70
     1
102
RTVSPost2010Prop39
140
1.0
102
RTVSPost2010PropOp39
 70
     1
102
RTVSPost2010Prop40
 90
        0
102
RTVSPost2010PropOp40
 70
     1
102
RTVSPost2010Prop41ColorIndex
 90
       18
102
RTVSPost2010Prop41ColorRGB
 90
        0
102
RTVSPost2010PropOp41
 70
     1
102
RTVSPost2010Prop42
 90
       50
102
RTVSPost2010PropOp42
 70
     1
102
RTVSPost2010Prop43
 90
        3
102
RTVSPost2010PropOp43
 70
     1
102
RTVSPost2010Prop44ColorIndex
 90
        5
102
RTVSPost2010Prop44ColorRGB
 90
      255
102
RTVSPost2010PropOp44
 70
     1
102
RTVSPost2010Prop45
280
     0
102
RTVSPost2010PropOp45
 70
     1
102
RTVSPost2010Prop46
 90
       50
102
RTVSPost2010PropOp46
 70
     1
102
RTVSPost2010Prop47
 90
       50
102
RTVSPost2010PropOp47
 70
     1
102
RTVSPost2010Prop48
 90
       50
102
RTVSPost2010PropOp48
 70
     1
102
RTVSPost2010Prop49
280
     0
102
RTVSPost2010PropOp49
 70
     1
102
RTVSPost2010Prop50
 90
       50
102
RTVSPost2010PropOp50
 70
     1
102
RTVSPost2010Prop51ColorIndex
 90
      256
102
RTVSPost2010Prop51ColorRGB
 90
-16777216
102
RTVSPost2010PropOp51
 70
     0
102
RTVSPost2010Prop52
140
1.0
102
RTVSPost2010PropOp52
 70
     0
102
RTVSPost2010Prop53
 90
        2
102
RTVSPost2010PropOp53
 70
     1
102
RTVSPost2010Prop54
  1
strokes_ogs.tif
102
RTVSPost2010PropOp54
 70
     1
102
RTVSPost2010Prop55
280
     0
102
RTVSPost2010PropOp55
 70
     1
102
RTVSPost2010Prop56
140
1.0
102
RTVSPost2010PropOp56
 70
     1
102
RTVSPost2010Prop57
140
1.0
102
RTVSPost2010PropOp57
 70
     1
102
RTVSPropertyOp0
 70
     1
102
RTVSPropertyOp1
 70
     1
102
RTVSPropertyOp2
 70
     1
102
RTVSPropertyOp3
 70
     1
102
RTVSPropertyOp4
 70
     1
102
RTVSPropertyOp5
 70
     1
102
RTVSPropertyOp6
 70
     1
102
RTVSPropertyOp7
 70
     1
102
RTVSPropertyOp8
 70
     1
102
RTVSPropertyOp9
 70
     1
102
RTVSPropertyOp10
 70
     1
102
RTVSPropertyOp11
 70
     1
102
RTVSPropertyOp12
 70
     1
102
RTVSPropertyOp13
 70
     1
102
RTVSPropertyOp14
 70
     1
102
RTVSPropertyOp15
 70
     1
102
RTVSPropertyOp16
 70
     1
102
RTVSPropertyOp17
 70
     1
102
RTVSPropertyOp18
 70
     1
102
RTVSPropertyOp19
 70
     1
102
RTVSPropertyOp20
 70
     1
102
RTVSPropertyOp21
 70
     1
102
RTVSPropertyOp22
 70
     1
102
RTVSPropertyOp23
 70
     1
102
RTVSPropertyOp24
 70
     1
102
RTVSPropertyOp25
 70
     1
102
RTVSPropertyOp26
 70
     1
102
RTVSPropertyOp27
 70
     1
102
RTVSPropertyOp28
 70
     1
102
RTVSPropertyOp29
 70
     1
102
RTVSPropertyOp30
 70
     1
102
RTVSPropertyOp31
 70
     1
102
RTVSPropertyOp32
 70
     1
102
RTVSPropertyOp33
 70
     1
102
RTVSPropertyOp34
 70
     1
102
RTVSPropertyOp35
 70
     1
102
RTVSPropertyOp36
 70
     1
102
RTVSPropertyOp37
 70
     1
102
RTVSPropertyOp38
 70
     1
102
RTVSPropertyOp39
 70
     1
102
RTVSPropertyOp40
 70
     1
102
RTVSPropertyOp41
 70
     1
102
RTVSPropertyOp42
 70
     1
102
RTVSPropertyOp43
 70
     1
102
RTVSPropertyOp44
 70
     1
102
RTVSPropertyOp45
 70
     1
102
RTVSPropertyOp46
 70
     1
102
RTVSPropertyOp47
 70
     1
102
RTVSPropertyOp48
 70
     1
102
RTVSPropertyOp49
 70
     1
102
RTVSPropertyOp50
 70
     1
102
RTVSPropertyOp51
 70
     0
102
RTVSPropertyOp52
 70
     0
102
RTVSPropertyOp53
 70
     1
102
RTVSPropertyOp54
 70
     1
102
RTVSPropertyOp55
 70
     1
102
RTVSPropertyOp56
 70
     1
102
RTVSPropertyOp57
 70
     1
102
RTVSPropertyOp58
 70
     1
102
RTVSPropertyOp59
 70
     1
102
RTVSPropertyOp60
 70
     1
102
RTVSPropertyOp61
 70
     1
102
RTVSPropertyOp62
 70
     1
  0
XRECORD
  5
960
102
{ACAD_REACTORS
330
95F
102
}
330
95F
100
AcDbXrecord
280
     1
102
RTVSPost2010Prop28
280
     0
102
RTVSPost2010PropOp28
 70
     1
102
RTVSPost2010Prop29
280
     1
102
RTVSPost2010PropOp29
 70
     1
102
RTVSPost2010Prop30
280
     1
102
RTVSPost2010PropOp30
 70
     1
102
RTVSPost2010Prop31
280
     0
102
RTVSPost2010PropOp31
 70
     1
102
RTVSPost2010Prop32
280
     0
102
RTVSPost2010PropOp32
 70
     1
102
RTVSPost2010Prop33
280
     0
102
RTVSPost2010PropOp33
 70
     1
102
RTVSPost2010Prop34
280
     0
102
RTVSPost2010PropOp34
 70
     1
102
RTVSPost2010Prop35
280
     0
102
RTVSPost2010PropOp35
 70
     1
102
RTVSPost2010Prop36
280
     0
102
RTVSPost2010PropOp36
 70
     1
102
RTVSPost2010Prop37
 90
       50
102
RTVSPost2010PropOp37
 70
     1
102
RTVSPost2010Prop38
140
0.0
102
RTVSPost2010PropOp38
 70
     1
102
RTVSPost2010Prop39
140
1.0
102
RTVSPost2010PropOp39
 70
     1
102
RTVSPost2010Prop40
 90
        0
102
RTVSPost2010PropOp40
 70
     1
102
RTVSPost2010Prop41ColorIndex
 90
       18
102
RTVSPost2010Prop41ColorRGB
 90
        0
102
RTVSPost2010PropOp41
 70
     1
102
RTVSPost2010Prop42
 90
       50
102
RTVSPost2010PropOp42
 70
     1
102
RTVSPost2010Prop43
 90
        3
102
RTVSPost2010PropOp43
 70
     1
102
RTVSPost2010Prop44ColorIndex
 90
        5
102
RTVSPost2010Prop44ColorRGB
 90
      255
102
RTVSPost2010PropOp44
 70
     1
102
RTVSPost2010Prop45
280
     0
102
RTVSPost2010PropOp45
 70
     1
102
RTVSPost2010Prop46
 90
       50
102
RTVSPost2010PropOp46
 70
     1
102
RTVSPost2010Prop47
 90
       50
102
RTVSPost2010PropOp47
 70
     1
102
RTVSPost2010Prop48
 90
       50
102
RTVSPost2010PropOp48
 70
     1
102
RTVSPost2010Prop49
280
     0
102
RTVSPost2010PropOp49
 70
     1
102
RTVSPost2010Prop50
 90
       50
102
RTVSPost2010PropOp50
 70
     1
102
RTVSPost2010Prop51ColorIndex
 90
      256
102
RTVSPost2010Prop51ColorRGB
 90
-16777216
102
RTVSPost2010PropOp51
 70
     0
102
RTVSPost2010Prop52
140
1.0
102
RTVSPost2010PropOp52
 70
     0
102
RTVSPost2010Prop53
 90
        2
102
RTVSPost2010PropOp53
 70
     1
102
RTVSPost2010Prop54
  1
strokes_ogs.tif
102
RTVSPost2010PropOp54
 70
     1
102
RTVSPost2010Prop55
280
     0
102
RTVSPost2010PropOp55
 70
     1
102
RTVSPost2010Prop56
140
1.0
102
RTVSPost2010PropOp56
 70
     1
102
RTVSPost2010Prop57
140
1.0
102
RTVSPost2010PropOp57
 70
     1
102
RTVSPropertyOp0
 70
     1
102
RTVSPropertyOp1
 70
     1
102
RTVSPropertyOp2
 70
     1
102
RTVSPropertyOp3
 70
     1
102
RTVSPropertyOp4
 70
     1
102
RTVSPropertyOp5
 70
     1
102
RTVSPropertyOp6
 70
     1
102
RTVSPropertyOp7
 70
     1
102
RTVSPropertyOp8
 70
     1
102
RTVSPropertyOp9
 70
     1
102
RTVSPropertyOp10
 70
     1
102
RTVSPropertyOp11
 70
     1
102
RTVSPropertyOp12
 70
     1
102
RTVSPropertyOp13
 70
     1
102
RTVSPropertyOp14
 70
     1
102
RTVSPropertyOp15
 70
     1
102
RTVSPropertyOp16
 70
     1
102
RTVSPropertyOp17
 70
     1
102
RTVSPropertyOp18
 70
     1
102
RTVSPropertyOp19
 70
     1
102
RTVSPropertyOp20
 70
     1
102
RTVSPropertyOp21
 70
     1
102
RTVSPropertyOp22
 70
     1
102
RTVSPropertyOp23
 70
     1
102
RTVSPropertyOp24
 70
     1
102
RTVSPropertyOp25
 70
     1
102
RTVSPropertyOp26
 70
     1
102
RTVSPropertyOp27
 70
     1
102
RTVSPropertyOp28
 70
     1
102
RTVSPropertyOp29
 70
     1
102
RTVSPropertyOp30
 70
     1
102
RTVSPropertyOp31
 70
     1
102
RTVSPropertyOp32
 70
     1
102
RTVSPropertyOp33
 70
     1
102
RTVSPropertyOp34
 70
     1
102
RTVSPropertyOp35
 70
     1
102
RTVSPropertyOp36
 70
     1
102
RTVSPropertyOp37
 70
     1
102
RTVSPropertyOp38
 70
     1
102
RTVSPropertyOp39
 70
     1
102
RTVSPropertyOp40
 70
     1
102
RTVSPropertyOp41
 70
     1
102
RTVSPropertyOp42
 70
     1
102
RTVSPropertyOp43
 70
     1
102
RTVSPropertyOp44
 70
     1
102
RTVSPropertyOp45
 70
     1
102
RTVSPropertyOp46
 70
     1
102
RTVSPropertyOp47
 70
     1
102
RTVSPropertyOp48
 70
     1
102
RTVSPropertyOp49
 70
     1
102
RTVSPropertyOp50
 70
     1
102
RTVSPropertyOp51
 70
     0
102
RTVSPropertyOp52
 70
     0
102
RTVSPropertyOp53
 70
     1
102
RTVSPropertyOp54
 70
     1
102
RTVSPropertyOp55
 70
     1
102
RTVSPropertyOp56
 70
     1
102
RTVSPropertyOp57
 70
     1
102
RTVSPropertyOp58
 70
     1
102
RTVSPropertyOp59
 70
     1
102
RTVSPropertyOp60
 70
     1
102
RTVSPropertyOp61
 70
     1
102
RTVSPropertyOp62
 70
     1
  0
XRECORD
  5
97A
102
{ACAD_REACTORS
330
979
102
}
330
979
100
AcDbXrecord
280
     1
102
RTVSPost2010Prop28
280
     0
102
RTVSPost2010PropOp28
 70
     0
102
RTVSPost2010Prop29
280
     1
102
RTVSPost2010PropOp29
 70
     0
102
RTVSPost2010Prop30
280
     1
102
RTVSPost2010PropOp30
 70
     0
102
RTVSPost2010Prop31
280
     0
102
RTVSPost2010PropOp31
 70
     0
102
RTVSPost2010Prop32
280
     0
102
RTVSPost2010PropOp32
 70
     0
102
RTVSPost2010Prop33
280
     0
102
RTVSPost2010PropOp33
 70
     0
102
RTVSPost2010Prop34
280
     0
102
RTVSPost2010PropOp34
 70
     0
102
RTVSPost2010Prop35
280
     0
102
RTVSPost2010PropOp35
 70
     0
102
RTVSPost2010Prop36
280
     0
102
RTVSPost2010PropOp36
 70
     0
102
RTVSPost2010Prop37
 90
       50
102
RTVSPost2010PropOp37
 70
     0
102
RTVSPost2010Prop38
140
0.0
102
RTVSPost2010PropOp38
 70
     0
102
RTVSPost2010Prop39
140
1.0
102
RTVSPost2010PropOp39
 70
     0
102
RTVSPost2010Prop40
 90
        0
102
RTVSPost2010PropOp40
 70
     0
102
RTVSPost2010Prop41ColorIndex
 90
       18
102
RTVSPost2010Prop41ColorRGB
 90
        0
102
RTVSPost2010PropOp41
 70
     0
102
RTVSPost2010Prop42
 90
       50
102
RTVSPost2010PropOp42
 70
     0
102
RTVSPost2010Prop43
 90
        3
102
RTVSPost2010PropOp43
 70
     0
102
RTVSPost2010Prop44ColorIndex
 90
        5
102
RTVSPost2010Prop44ColorRGB
 90
      255
102
RTVSPost2010PropOp44
 70
     0
102
RTVSPost2010Prop45
280
     0
102
RTVSPost2010PropOp45
 70
     0
102
RTVSPost2010Prop46
 90
       50
102
RTVSPost2010PropOp46
 70
     0
102
RTVSPost2010Prop47
 90
       50
102
RTVSPost2010PropOp47
 70
     0
102
RTVSPost2010Prop48
 90
       50
102
RTVSPost2010PropOp48
 70
     0
102
RTVSPost2010Prop49
280
     0
102
RTVSPost2010PropOp49
 70
     0
102
RTVSPost2010Prop50
 90
       50
102
RTVSPost2010PropOp50
 70
     0
102
RTVSPost2010Prop51ColorIndex
 90
      256
102
RTVSPost2010Prop51ColorRGB
 90
-16777216
102
RTVSPost2010PropOp51
 70
     0
102
RTVSPost2010Prop52
140
1.0
102
RTVSPost2010PropOp52
 70
     0
102
RTVSPost2010Prop53
 90
        2
102
RTVSPost2010PropOp53
 70
     0
102
RTVSPost2010Prop54
  1
strokes_ogs.tif
102
RTVSPost2010PropOp54
 70
     0
102
RTVSPost2010Prop55
280
     0
102
RTVSPost2010PropOp55
 70
     0
102
RTVSPost2010Prop56
140
1.0
102
RTVSPost2010PropOp56
 70
     0
102
RTVSPost2010Prop57
140
1.0
102
RTVSPost2010PropOp57
 70
     0
102
RTVSPropertyOp0
 70
     0
102
RTVSPropertyOp1
 70
     0
102
RTVSPropertyOp2
 70
     0
102
RTVSPropertyOp3
 70
     0
102
RTVSPropertyOp4
 70
     0
102
RTVSPropertyOp5
 70
     0
102
RTVSPropertyOp6
 70
     0
102
RTVSPropertyOp7
 70
     0
102
RTVSPropertyOp8
 70
     0
102
RTVSPropertyOp9
 70
     0
102
RTVSPropertyOp10
 70
     0
102
RTVSPropertyOp11
 70
     0
102
RTVSPropertyOp12
 70
     0
102
RTVSPropertyOp13
 70
     0
102
RTVSPropertyOp14
 70
     2
102
RTVSPropertyOp15
 70
     0
102
RTVSPropertyOp16
 70
     0
102
RTVSPropertyOp17
 70
     0
102
RTVSPropertyOp18
 70
     0
102
RTVSPropertyOp19
 70
     0
102
RTVSPropertyOp20
 70
     0
102
RTVSPropertyOp21
 70
     0
102
RTVSPropertyOp22
 70
     0
102
RTVSPropertyOp23
 70
     0
102
RTVSPropertyOp24
 70
     0
102
RTVSPropertyOp25
 70
     0
102
RTVSPropertyOp26
 70
     0
102
RTVSPropertyOp27
 70
     0
102
RTVSPropertyOp28
 70
     0
102
RTVSPropertyOp29
 70
     0
102
RTVSPropertyOp30
 70
     0
102
RTVSPropertyOp31
 70
     0
102
RTVSPropertyOp32
 70
     0
102
RTVSPropertyOp33
 70
     0
102
RTVSPropertyOp34
 70
     0
102
RTVSPropertyOp35
 70
     0
102
RTVSPropertyOp36
 70
     0
102
RTVSPropertyOp37
 70
     0
102
RTVSPropertyOp38
 70
     0
102
RTVSPropertyOp39
 70
     0
102
RTVSPropertyOp40
 70
     0
102
RTVSPropertyOp41
 70
     0
102
RTVSPropertyOp42
 70
     0
102
RTVSPropertyOp43
 70
     0
102
RTVSPropertyOp44
 70
     0
102
RTVSPropertyOp45
 70
     0
102
RTVSPropertyOp46
 70
     0
102
RTVSPropertyOp47
 70
     0
102
RTVSPropertyOp48
 70
     0
102
RTVSPropertyOp49
 70
     0
102
RTVSPropertyOp50
 70
     0
102
RTVSPropertyOp51
 70
     0
102
RTVSPropertyOp52
 70
     0
102
RTVSPropertyOp53
 70
     0
102
RTVSPropertyOp54
 70
     0
102
RTVSPropertyOp55
 70
     0
102
RTVSPropertyOp56
 70
     0
102
RTVSPropertyOp57
 70
     0
102
RTVSPropertyOp58
 70
     0
102
RTVSPropertyOp59
 70
     0
102
RTVSPropertyOp60
 70
     0
102
RTVSPropertyOp61
 70
     0
102
RTVSPropertyOp62
 70
     0
  0
XRECORD
  5
968
102
{ACAD_REACTORS
330
967
102
}
330
967
100
AcDbXrecord
280
     1
102
RTVSPost2010Prop28
280
     0
102
RTVSPost2010PropOp28
 70
     1
102
RTVSPost2010Prop29
280
     1
102
RTVSPost2010PropOp29
 70
     1
102
RTVSPost2010Prop30
280
     1
102
RTVSPost2010PropOp30
 70
     1
102
RTVSPost2010Prop31
280
     0
102
RTVSPost2010PropOp31
 70
     1
102
RTVSPost2010Prop32
280
     0
102
RTVSPost2010PropOp32
 70
     1
102
RTVSPost2010Prop33
280
     0
102
RTVSPost2010PropOp33
 70
     1
102
RTVSPost2010Prop34
280
     0
102
RTVSPost2010PropOp34
 70
     1
102
RTVSPost2010Prop35
280
     0
102
RTVSPost2010PropOp35
 70
     1
102
RTVSPost2010Prop36
280
     0
102
RTVSPost2010PropOp36
 70
     1
102
RTVSPost2010Prop37
 90
       50
102
RTVSPost2010PropOp37
 70
     1
102
RTVSPost2010Prop38
140
0.0
102
RTVSPost2010PropOp38
 70
     1
102
RTVSPost2010Prop39
140
1.0
102
RTVSPost2010PropOp39
 70
     1
102
RTVSPost2010Prop40
 90
        0
102
RTVSPost2010PropOp40
 70
     1
102
RTVSPost2010Prop41ColorIndex
 90
       18
102
RTVSPost2010Prop41ColorRGB
 90
        0
102
RTVSPost2010PropOp41
 70
     1
102
RTVSPost2010Prop42
 90
       50
102
RTVSPost2010PropOp42
 70
     1
102
RTVSPost2010Prop43
 90
        3
102
RTVSPost2010PropOp43
 70
     1
102
RTVSPost2010Prop44ColorIndex
 90
        5
102
RTVSPost2010Prop44ColorRGB
 90
      255
102
RTVSPost2010PropOp44
 70
     1
102
RTVSPost2010Prop45
280
     0
102
RTVSPost2010PropOp45
 70
     1
102
RTVSPost2010Prop46
 90
       50
102
RTVSPost2010PropOp46
 70
     1
102
RTVSPost2010Prop47
 90
       50
102
RTVSPost2010PropOp47
 70
     1
102
RTVSPost2010Prop48
 90
       50
102
RTVSPost2010PropOp48
 70
     1
102
RTVSPost2010Prop49
280
     0
102
RTVSPost2010PropOp49
 70
     1
102
RTVSPost2010Prop50
 90
       50
102
RTVSPost2010PropOp50
 70
     1
102
RTVSPost2010Prop51ColorIndex
 90
      256
102
RTVSPost2010Prop51ColorRGB
 90
-16777216
102
RTVSPost2010PropOp51
 70
     0
102
RTVSPost2010Prop52
140
1.0
102
RTVSPost2010PropOp52
 70
     0
102
RTVSPost2010Prop53
 90
        2
102
RTVSPost2010PropOp53
 70
     1
102
RTVSPost2010Prop54
  1
strokes_ogs.tif
102
RTVSPost2010PropOp54
 70
     1
102
RTVSPost2010Prop55
280
     0
102
RTVSPost2010PropOp55
 70
     1
102
RTVSPost2010Prop56
140
1.0
102
RTVSPost2010PropOp56
 70
     1
102
RTVSPost2010Prop57
140
1.0
102
RTVSPost2010PropOp57
 70
     1
102
RTVSPropertyOp0
 70
     1
102
RTVSPropertyOp1
 70
     1
102
RTVSPropertyOp2
 70
     1
102
RTVSPropertyOp3
 70
     1
102
RTVSPropertyOp4
 70
     1
102
RTVSPropertyOp5
 70
     1
102
RTVSPropertyOp6
 70
     1
102
RTVSPropertyOp7
 70
     1
102
RTVSPropertyOp8
 70
     1
102
RTVSPropertyOp9
 70
     1
102
RTVSPropertyOp10
 70
     1
102
RTVSPropertyOp11
 70
     1
102
RTVSPropertyOp12
 70
     1
102
RTVSPropertyOp13
 70
     1
102
RTVSPropertyOp14
 70
     1
102
RTVSPropertyOp15
 70
     1
102
RTVSPropertyOp16
 70
     1
102
RTVSPropertyOp17
 70
     1
102
RTVSPropertyOp18
 70
     1
102
RTVSPropertyOp19
 70
     1
102
RTVSPropertyOp20
 70
     1
102
RTVSPropertyOp21
 70
     1
102
RTVSPropertyOp22
 70
     1
102
RTVSPropertyOp23
 70
     1
102
RTVSPropertyOp24
 70
     1
102
RTVSPropertyOp25
 70
     1
102
RTVSPropertyOp26
 70
     1
102
RTVSPropertyOp27
 70
     1
102
RTVSPropertyOp28
 70
     1
102
RTVSPropertyOp29
 70
     1
102
RTVSPropertyOp30
 70
     1
102
RTVSPropertyOp31
 70
     1
102
RTVSPropertyOp32
 70
     1
102
RTVSPropertyOp33
 70
     1
102
RTVSPropertyOp34
 70
     1
102
RTVSPropertyOp35
 70
     1
102
RTVSPropertyOp36
 70
     1
102
RTVSPropertyOp37
 70
     1
102
RTVSPropertyOp38
 70
     1
102
RTVSPropertyOp39
 70
     1
102
RTVSPropertyOp40
 70
     1
102
RTVSPropertyOp41
 70
     1
102
RTVSPropertyOp42
 70
     1
102
RTVSPropertyOp43
 70
     1
102
RTVSPropertyOp44
 70
     1
102
RTVSPropertyOp45
 70
     1
102
RTVSPropertyOp46
 70
     1
102
RTVSPropertyOp47
 70
     1
102
RTVSPropertyOp48
 70
     1
102
RTVSPropertyOp49
 70
     1
102
RTVSPropertyOp50
 70
     1
102
RTVSPropertyOp51
 70
     0
102
RTVSPropertyOp52
 70
     0
102
RTVSPropertyOp53
 70
     1
102
RTVSPropertyOp54
 70
     1
102
RTVSPropertyOp55
 70
     1
102
RTVSPropertyOp56
 70
     1
102
RTVSPropertyOp57
 70
     1
102
RTVSPropertyOp58
 70
     1
102
RTVSPropertyOp59
 70
     1
102
RTVSPropertyOp60
 70
     1
102
RTVSPropertyOp61
 70
     1
102
RTVSPropertyOp62
 70
     1
  0
XRECORD
  5
94C
102
{ACAD_REACTORS
330
94B
102
}
330
94B
100
AcDbXrecord
280
     1
102
RTVSPost2010Prop28
280
     0
102
RTVSPost2010PropOp28
 70
     1
102
RTVSPost2010Prop29
280
     1
102
RTVSPost2010PropOp29
 70
     1
102
RTVSPost2010Prop30
280
     1
102
RTVSPost2010PropOp30
 70
     1
102
RTVSPost2010Prop31
280
     0
102
RTVSPost2010PropOp31
 70
     1
102
RTVSPost2010Prop32
280
     0
102
RTVSPost2010PropOp32
 70
     1
102
RTVSPost2010Prop33
280
     0
102
RTVSPost2010PropOp33
 70
     1
102
RTVSPost2010Prop34
280
     0
102
RTVSPost2010PropOp34
 70
     1
102
RTVSPost2010Prop35
280
     0
102
RTVSPost2010PropOp35
 70
     1
102
RTVSPost2010Prop36
280
     0
102
RTVSPost2010PropOp36
 70
     1
102
RTVSPost2010Prop37
 90
       50
102
RTVSPost2010PropOp37
 70
     1
102
RTVSPost2010Prop38
140
0.0
102
RTVSPost2010PropOp38
 70
     1
102
RTVSPost2010Prop39
140
1.0
102
RTVSPost2010PropOp39
 70
     1
102
RTVSPost2010Prop40
 90
        0
102
RTVSPost2010PropOp40
 70
     1
102
RTVSPost2010Prop41ColorIndex
 90
       18
102
RTVSPost2010Prop41ColorRGB
 90
        0
102
RTVSPost2010PropOp41
 70
     1
102
RTVSPost2010Prop42
 90
       50
102
RTVSPost2010PropOp42
 70
     1
102
RTVSPost2010Prop43
 90
        3
102
RTVSPost2010PropOp43
 70
     1
102
RTVSPost2010Prop44ColorIndex
 90
        5
102
RTVSPost2010Prop44ColorRGB
 90
      255
102
RTVSPost2010PropOp44
 70
     1
102
RTVSPost2010Prop45
280
     0
102
RTVSPost2010PropOp45
 70
     1
102
RTVSPost2010Prop46
 90
       50
102
RTVSPost2010PropOp46
 70
     1
102
RTVSPost2010Prop47
 90
       50
102
RTVSPost2010PropOp47
 70
     1
102
RTVSPost2010Prop48
 90
       50
102
RTVSPost2010PropOp48
 70
     1
102
RTVSPost2010Prop49
280
     0
102
RTVSPost2010PropOp49
 70
     1
102
RTVSPost2010Prop50
 90
       50
102
RTVSPost2010PropOp50
 70
     1
102
RTVSPost2010Prop51ColorIndex
 90
      256
102
RTVSPost2010Prop51ColorRGB
 90
-16777216
102
RTVSPost2010PropOp51
 70
     0
102
RTVSPost2010Prop52
140
1.0
102
RTVSPost2010PropOp52
 70
     0
102
RTVSPost2010Prop53
 90
        2
102
RTVSPost2010PropOp53
 70
     1
102
RTVSPost2010Prop54
  1
strokes_ogs.tif
102
RTVSPost2010PropOp54
 70
     1
102
RTVSPost2010Prop55
280
     0
102
RTVSPost2010PropOp55
 70
     1
102
RTVSPost2010Prop56
140
1.0
102
RTVSPost2010PropOp56
 70
     1
102
RTVSPost2010Prop57
140
1.0
102
RTVSPost2010PropOp57
 70
     1
102
RTVSPropertyOp0
 70
     1
102
RTVSPropertyOp1
 70
     1
102
RTVSPropertyOp2
 70
     1
102
RTVSPropertyOp3
 70
     1
102
RTVSPropertyOp4
 70
     1
102
RTVSPropertyOp5
 70
     1
102
RTVSPropertyOp6
 70
     1
102
RTVSPropertyOp7
 70
     1
102
RTVSPropertyOp8
 70
     1
102
RTVSPropertyOp9
 70
     1
102
RTVSPropertyOp10
 70
     1
102
RTVSPropertyOp11
 70
     1
102
RTVSPropertyOp12
 70
     1
102
RTVSPropertyOp13
 70
     1
102
RTVSPropertyOp14
 70
     1
102
RTVSPropertyOp15
 70
     1
102
RTVSPropertyOp16
 70
     1
102
RTVSPropertyOp17
 70
     1
102
RTVSPropertyOp18
 70
     1
102
RTVSPropertyOp19
 70
     1
102
RTVSPropertyOp20
 70
     1
102
RTVSPropertyOp21
 70
     1
102
RTVSPropertyOp22
 70
     1
102
RTVSPropertyOp23
 70
     1
102
RTVSPropertyOp24
 70
     1
102
RTVSPropertyOp25
 70
     1
102
RTVSPropertyOp26
 70
     1
102
RTVSPropertyOp27
 70
     1
102
RTVSPropertyOp28
 70
     1
102
RTVSPropertyOp29
 70
     1
102
RTVSPropertyOp30
 70
     1
102
RTVSPropertyOp31
 70
     1
102
RTVSPropertyOp32
 70
     1
102
RTVSPropertyOp33
 70
     1
102
RTVSPropertyOp34
 70
     1
102
RTVSPropertyOp35
 70
     1
102
RTVSPropertyOp36
 70
     1
102
RTVSPropertyOp37
 70
     1
102
RTVSPropertyOp38
 70
     1
102
RTVSPropertyOp39
 70
     1
102
RTVSPropertyOp40
 70
     1
102
RTVSPropertyOp41
 70
     1
102
RTVSPropertyOp42
 70
     1
102
RTVSPropertyOp43
 70
     1
102
RTVSPropertyOp44
 70
     1
102
RTVSPropertyOp45
 70
     1
102
RTVSPropertyOp46
 70
     1
102
RTVSPropertyOp47
 70
     1
102
RTVSPropertyOp48
 70
     1
102
RTVSPropertyOp49
 70
     1
102
RTVSPropertyOp50
 70
     1
102
RTVSPropertyOp51
 70
     0
102
RTVSPropertyOp52
 70
     0
102
RTVSPropertyOp53
 70
     1
102
RTVSPropertyOp54
 70
     1
102
RTVSPropertyOp55
 70
     1
102
RTVSPropertyOp56
 70
     1
102
RTVSPropertyOp57
 70
     1
102
RTVSPropertyOp58
 70
     1
102
RTVSPropertyOp59
 70
     1
102
RTVSPropertyOp60
 70
     1
102
RTVSPropertyOp61
 70
     1
102
RTVSPropertyOp62
 70
     1
  0
XRECORD
  5
94E
102
{ACAD_REACTORS
330
94D
102
}
330
94D
100
AcDbXrecord
280
     1
102
RTVSPost2010Prop28
280
     0
102
RTVSPost2010PropOp28
 70
     1
102
RTVSPost2010Prop29
280
     1
102
RTVSPost2010PropOp29
 70
     1
102
RTVSPost2010Prop30
280
     1
102
RTVSPost2010PropOp30
 70
     1
102
RTVSPost2010Prop31
280
     0
102
RTVSPost2010PropOp31
 70
     1
102
RTVSPost2010Prop32
280
     0
102
RTVSPost2010PropOp32
 70
     1
102
RTVSPost2010Prop33
280
     0
102
RTVSPost2010PropOp33
 70
     1
102
RTVSPost2010Prop34
280
     0
102
RTVSPost2010PropOp34
 70
     1
102
RTVSPost2010Prop35
280
     0
102
RTVSPost2010PropOp35
 70
     1
102
RTVSPost2010Prop36
280
     0
102
RTVSPost2010PropOp36
 70
     1
102
RTVSPost2010Prop37
 90
       50
102
RTVSPost2010PropOp37
 70
     1
102
RTVSPost2010Prop38
140
0.0
102
RTVSPost2010PropOp38
 70
     1
102
RTVSPost2010Prop39
140
1.0
102
RTVSPost2010PropOp39
 70
     1
102
RTVSPost2010Prop40
 90
        0
102
RTVSPost2010PropOp40
 70
     1
102
RTVSPost2010Prop41ColorIndex
 90
       18
102
RTVSPost2010Prop41ColorRGB
 90
        0
102
RTVSPost2010PropOp41
 70
     1
102
RTVSPost2010Prop42
 90
       50
102
RTVSPost2010PropOp42
 70
     1
102
RTVSPost2010Prop43
 90
        3
102
RTVSPost2010PropOp43
 70
     1
102
RTVSPost2010Prop44ColorIndex
 90
        5
102
RTVSPost2010Prop44ColorRGB
 90
      255
102
RTVSPost2010PropOp44
 70
     1
102
RTVSPost2010Prop45
280
     0
102
RTVSPost2010PropOp45
 70
     1
102
RTVSPost2010Prop46
 90
       50
102
RTVSPost2010PropOp46
 70
     1
102
RTVSPost2010Prop47
 90
       50
102
RTVSPost2010PropOp47
 70
     1
102
RTVSPost2010Prop48
 90
       50
102
RTVSPost2010PropOp48
 70
     1
102
RTVSPost2010Prop49
280
     0
102
RTVSPost2010PropOp49
 70
     1
102
RTVSPost2010Prop50
 90
       50
102
RTVSPost2010PropOp50
 70
     1
102
RTVSPost2010Prop51ColorIndex
 90
      256
102
RTVSPost2010Prop51ColorRGB
 90
-16777216
102
RTVSPost2010PropOp51
 70
     0
102
RTVSPost2010Prop52
140
1.0
102
RTVSPost2010PropOp52
 70
     0
102
RTVSPost2010Prop53
 90
        2
102
RTVSPost2010PropOp53
 70
     1
102
RTVSPost2010Prop54
  1
strokes_ogs.tif
102
RTVSPost2010PropOp54
 70
     1
102
RTVSPost2010Prop55
280
     0
102
RTVSPost2010PropOp55
 70
     1
102
RTVSPost2010Prop56
140
1.0
102
RTVSPost2010PropOp56
 70
     1
102
RTVSPost2010Prop57
140
1.0
102
RTVSPost2010PropOp57
 70
     1
102
RTVSPropertyOp0
 70
     1
102
RTVSPropertyOp1
 70
     1
102
RTVSPropertyOp2
 70
     1
102
RTVSPropertyOp3
 70
     1
102
RTVSPropertyOp4
 70
     1
102
RTVSPropertyOp5
 70
     1
102
RTVSPropertyOp6
 70
     1
102
RTVSPropertyOp7
 70
     1
102
RTVSPropertyOp8
 70
     1
102
RTVSPropertyOp9
 70
     1
102
RTVSPropertyOp10
 70
     1
102
RTVSPropertyOp11
 70
     1
102
RTVSPropertyOp12
 70
     1
102
RTVSPropertyOp13
 70
     1
102
RTVSPropertyOp14
 70
     1
102
RTVSPropertyOp15
 70
     1
102
RTVSPropertyOp16
 70
     1
102
RTVSPropertyOp17
 70
     1
102
RTVSPropertyOp18
 70
     1
102
RTVSPropertyOp19
 70
     1
102
RTVSPropertyOp20
 70
     1
102
RTVSPropertyOp21
 70
     1
102
RTVSPropertyOp22
 70
     1
102
RTVSPropertyOp23
 70
     1
102
RTVSPropertyOp24
 70
     1
102
RTVSPropertyOp25
 70
     1
102
RTVSPropertyOp26
 70
     1
102
RTVSPropertyOp27
 70
     1
102
RTVSPropertyOp28
 70
     1
102
RTVSPropertyOp29
 70
     1
102
RTVSPropertyOp30
 70
     1
102
RTVSPropertyOp31
 70
     1
102
RTVSPropertyOp32
 70
     1
102
RTVSPropertyOp33
 70
     1
102
RTVSPropertyOp34
 70
     1
102
RTVSPropertyOp35
 70
     1
102
RTVSPropertyOp36
 70
     1
102
RTVSPropertyOp37
 70
     1
102
RTVSPropertyOp38
 70
     1
102
RTVSPropertyOp39
 70
     1
102
RTVSPropertyOp40
 70
     1
102
RTVSPropertyOp41
 70
     1
102
RTVSPropertyOp42
 70
     1
102
RTVSPropertyOp43
 70
     1
102
RTVSPropertyOp44
 70
     1
102
RTVSPropertyOp45
 70
     1
102
RTVSPropertyOp46
 70
     1
102
RTVSPropertyOp47
 70
     1
102
RTVSPropertyOp48
 70
     1
102
RTVSPropertyOp49
 70
     1
102
RTVSPropertyOp50
 70
     1
102
RTVSPropertyOp51
 70
     0
102
RTVSPropertyOp52
 70
     0
102
RTVSPropertyOp53
 70
     1
102
RTVSPropertyOp54
 70
     1
102
RTVSPropertyOp55
 70
     1
102
RTVSPropertyOp56
 70
     1
102
RTVSPropertyOp57
 70
     1
102
RTVSPropertyOp58
 70
     1
102
RTVSPropertyOp59
 70
     1
102
RTVSPropertyOp60
 70
     1
102
RTVSPropertyOp61
 70
     1
102
RTVSPropertyOp62
 70
     1
  0
XRECORD
  5
950
102
{ACAD_REACTORS
330
94F
102
}
330
94F
100
AcDbXrecord
280
     1
102
RTVSPost2010Prop28
280
     0
102
RTVSPost2010PropOp28
 70
     1
102
RTVSPost2010Prop29
280
     1
102
RTVSPost2010PropOp29
 70
     1
102
RTVSPost2010Prop30
280
     1
102
RTVSPost2010PropOp30
 70
     1
102
RTVSPost2010Prop31
280
     0
102
RTVSPost2010PropOp31
 70
     1
102
RTVSPost2010Prop32
280
     0
102
RTVSPost2010PropOp32
 70
     1
102
RTVSPost2010Prop33
280
     0
102
RTVSPost2010PropOp33
 70
     1
102
RTVSPost2010Prop34
280
     0
102
RTVSPost2010PropOp34
 70
     1
102
RTVSPost2010Prop35
280
     0
102
RTVSPost2010PropOp35
 70
     1
102
RTVSPost2010Prop36
280
     0
102
RTVSPost2010PropOp36
 70
     1
102
RTVSPost2010Prop37
 90
       50
102
RTVSPost2010PropOp37
 70
     1
102
RTVSPost2010Prop38
140
0.0
102
RTVSPost2010PropOp38
 70
     1
102
RTVSPost2010Prop39
140
1.0
102
RTVSPost2010PropOp39
 70
     1
102
RTVSPost2010Prop40
 90
        0
102
RTVSPost2010PropOp40
 70
     1
102
RTVSPost2010Prop41ColorIndex
 90
       18
102
RTVSPost2010Prop41ColorRGB
 90
        0
102
RTVSPost2010PropOp41
 70
     1
102
RTVSPost2010Prop42
 90
       50
102
RTVSPost2010PropOp42
 70
     1
102
RTVSPost2010Prop43
 90
        3
102
RTVSPost2010PropOp43
 70
     1
102
RTVSPost2010Prop44ColorIndex
 90
        5
102
RTVSPost2010Prop44ColorRGB
 90
      255
102
RTVSPost2010PropOp44
 70
     1
102
RTVSPost2010Prop45
280
     0
102
RTVSPost2010PropOp45
 70
     1
102
RTVSPost2010Prop46
 90
       50
102
RTVSPost2010PropOp46
 70
     1
102
RTVSPost2010Prop47
 90
       50
102
RTVSPost2010PropOp47
 70
     1
102
RTVSPost2010Prop48
 90
       50
102
RTVSPost2010PropOp48
 70
     1
102
RTVSPost2010Prop49
280
     0
102
RTVSPost2010PropOp49
 70
     1
102
RTVSPost2010Prop50
 90
       50
102
RTVSPost2010PropOp50
 70
     1
102
RTVSPost2010Prop51ColorIndex
 90
      256
102
RTVSPost2010Prop51ColorRGB
 90
-16777216
102
RTVSPost2010PropOp51
 70
     0
102
RTVSPost2010Prop52
140
1.0
102
RTVSPost2010PropOp52
 70
     0
102
RTVSPost2010Prop53
 90
        2
102
RTVSPost2010PropOp53
 70
     1
102
RTVSPost2010Prop54
  1
strokes_ogs.tif
102
RTVSPost2010PropOp54
 70
     1
102
RTVSPost2010Prop55
280
     0
102
RTVSPost2010PropOp55
 70
     1
102
RTVSPost2010Prop56
140
1.0
102
RTVSPost2010PropOp56
 70
     1
102
RTVSPost2010Prop57
140
1.0
102
RTVSPost2010PropOp57
 70
     1
102
RTVSPropertyOp0
 70
     1
102
RTVSPropertyOp1
 70
     1
102
RTVSPropertyOp2
 70
     1
102
RTVSPropertyOp3
 70
     1
102
RTVSPropertyOp4
 70
     1
102
RTVSPropertyOp5
 70
     1
102
RTVSPropertyOp6
 70
     1
102
RTVSPropertyOp7
 70
     1
102
RTVSPropertyOp8
 70
     1
102
RTVSPropertyOp9
 70
     1
102
RTVSPropertyOp10
 70
     1
102
RTVSPropertyOp11
 70
     1
102
RTVSPropertyOp12
 70
     1
102
RTVSPropertyOp13
 70
     1
102
RTVSPropertyOp14
 70
     1
102
RTVSPropertyOp15
 70
     1
102
RTVSPropertyOp16
 70
     1
102
RTVSPropertyOp17
 70
     1
102
RTVSPropertyOp18
 70
     1
102
RTVSPropertyOp19
 70
     1
102
RTVSPropertyOp20
 70
     1
102
RTVSPropertyOp21
 70
     1
102
RTVSPropertyOp22
 70
     1
102
RTVSPropertyOp23
 70
     1
102
RTVSPropertyOp24
 70
     1
102
RTVSPropertyOp25
 70
     1
102
RTVSPropertyOp26
 70
     1
102
RTVSPropertyOp27
 70
     1
102
RTVSPropertyOp28
 70
     1
102
RTVSPropertyOp29
 70
     1
102
RTVSPropertyOp30
 70
     1
102
RTVSPropertyOp31
 70
     1
102
RTVSPropertyOp32
 70
     1
102
RTVSPropertyOp33
 70
     1
102
RTVSPropertyOp34
 70
     1
102
RTVSPropertyOp35
 70
     1
102
RTVSPropertyOp36
 70
     1
102
RTVSPropertyOp37
 70
     1
102
RTVSPropertyOp38
 70
     1
102
RTVSPropertyOp39
 70
     1
102
RTVSPropertyOp40
 70
     1
102
RTVSPropertyOp41
 70
     1
102
RTVSPropertyOp42
 70
     1
102
RTVSPropertyOp43
 70
     1
102
RTVSPropertyOp44
 70
     1
102
RTVSPropertyOp45
 70
     1
102
RTVSPropertyOp46
 70
     1
102
RTVSPropertyOp47
 70
     1
102
RTVSPropertyOp48
 70
     1
102
RTVSPropertyOp49
 70
     1
102
RTVSPropertyOp50
 70
     1
102
RTVSPropertyOp51
 70
     0
102
RTVSPropertyOp52
 70
     0
102
RTVSPropertyOp53
 70
     1
102
RTVSPropertyOp54
 70
     1
102
RTVSPropertyOp55
 70
     1
102
RTVSPropertyOp56
 70
     1
102
RTVSPropertyOp57
 70
     1
102
RTVSPropertyOp58
 70
     1
102
RTVSPropertyOp59
 70
     1
102
RTVSPropertyOp60
 70
     1
102
RTVSPropertyOp61
 70
     1
102
RTVSPropertyOp62
 70
     1
  0
XRECORD
  5
952
102
{ACAD_REACTORS
330
951
102
}
330
951
100
AcDbXrecord
280
     1
102
RTVSPost2010Prop28
280
     0
102
RTVSPost2010PropOp28
 70
     1
102
RTVSPost2010Prop29
280
     1
102
RTVSPost2010PropOp29
 70
     1
102
RTVSPost2010Prop30
280
     1
102
RTVSPost2010PropOp30
 70
     1
102
RTVSPost2010Prop31
280
     0
102
RTVSPost2010PropOp31
 70
     1
102
RTVSPost2010Prop32
280
     0
102
RTVSPost2010PropOp32
 70
     1
102
RTVSPost2010Prop33
280
     0
102
RTVSPost2010PropOp33
 70
     1
102
RTVSPost2010Prop34
280
     0
102
RTVSPost2010PropOp34
 70
     1
102
RTVSPost2010Prop35
280
     0
102
RTVSPost2010PropOp35
 70
     1
102
RTVSPost2010Prop36
280
     0
102
RTVSPost2010PropOp36
 70
     1
102
RTVSPost2010Prop37
 90
       50
102
RTVSPost2010PropOp37
 70
     1
102
RTVSPost2010Prop38
140
0.0
102
RTVSPost2010PropOp38
 70
     1
102
RTVSPost2010Prop39
140
1.0
102
RTVSPost2010PropOp39
 70
     1
102
RTVSPost2010Prop40
 90
        0
102
RTVSPost2010PropOp40
 70
     1
102
RTVSPost2010Prop41ColorIndex
 90
       18
102
RTVSPost2010Prop41ColorRGB
 90
        0
102
RTVSPost2010PropOp41
 70
     1
102
RTVSPost2010Prop42
 90
       50
102
RTVSPost2010PropOp42
 70
     1
102
RTVSPost2010Prop43
 90
        3
102
RTVSPost2010PropOp43
 70
     1
102
RTVSPost2010Prop44ColorIndex
 90
        5
102
RTVSPost2010Prop44ColorRGB
 90
      255
102
RTVSPost2010PropOp44
 70
     1
102
RTVSPost2010Prop45
280
     0
102
RTVSPost2010PropOp45
 70
     1
102
RTVSPost2010Prop46
 90
       50
102
RTVSPost2010PropOp46
 70
     1
102
RTVSPost2010Prop47
 90
       50
102
RTVSPost2010PropOp47
 70
     1
102
RTVSPost2010Prop48
 90
       50
102
RTVSPost2010PropOp48
 70
     1
102
RTVSPost2010Prop49
280
     0
102
RTVSPost2010PropOp49
 70
     1
102
RTVSPost2010Prop50
 90
       50
102
RTVSPost2010PropOp50
 70
     1
102
RTVSPost2010Prop51ColorIndex
 90
      256
102
RTVSPost2010Prop51ColorRGB
 90
-16777216
102
RTVSPost2010PropOp51
 70
     0
102
RTVSPost2010Prop52
140
1.0
102
RTVSPost2010PropOp52
 70
     0
102
RTVSPost2010Prop53
 90
        2
102
RTVSPost2010PropOp53
 70
     1
102
RTVSPost2010Prop54
  1
strokes_ogs.tif
102
RTVSPost2010PropOp54
 70
     1
102
RTVSPost2010Prop55
280
     0
102
RTVSPost2010PropOp55
 70
     1
102
RTVSPost2010Prop56
140
1.0
102
RTVSPost2010PropOp56
 70
     1
102
RTVSPost2010Prop57
140
1.0
102
RTVSPost2010PropOp57
 70
     1
102
RTVSPropertyOp0
 70
     1
102
RTVSPropertyOp1
 70
     1
102
RTVSPropertyOp2
 70
     1
102
RTVSPropertyOp3
 70
     1
102
RTVSPropertyOp4
 70
     1
102
RTVSPropertyOp5
 70
     1
102
RTVSPropertyOp6
 70
     1
102
RTVSPropertyOp7
 70
     1
102
RTVSPropertyOp8
 70
     1
102
RTVSPropertyOp9
 70
     1
102
RTVSPropertyOp10
 70
     1
102
RTVSPropertyOp11
 70
     1
102
RTVSPropertyOp12
 70
     1
102
RTVSPropertyOp13
 70
     1
102
RTVSPropertyOp14
 70
     1
102
RTVSPropertyOp15
 70
     1
102
RTVSPropertyOp16
 70
     1
102
RTVSPropertyOp17
 70
     1
102
RTVSPropertyOp18
 70
     1
102
RTVSPropertyOp19
 70
     1
102
RTVSPropertyOp20
 70
     1
102
RTVSPropertyOp21
 70
     1
102
RTVSPropertyOp22
 70
     1
102
RTVSPropertyOp23
 70
     1
102
RTVSPropertyOp24
 70
     1
102
RTVSPropertyOp25
 70
     1
102
RTVSPropertyOp26
 70
     1
102
RTVSPropertyOp27
 70
     1
102
RTVSPropertyOp28
 70
     1
102
RTVSPropertyOp29
 70
     1
102
RTVSPropertyOp30
 70
     1
102
RTVSPropertyOp31
 70
     1
102
RTVSPropertyOp32
 70
     1
102
RTVSPropertyOp33
 70
     1
102
RTVSPropertyOp34
 70
     1
102
RTVSPropertyOp35
 70
     1
102
RTVSPropertyOp36
 70
     1
102
RTVSPropertyOp37
 70
     1
102
RTVSPropertyOp38
 70
     1
102
RTVSPropertyOp39
 70
     1
102
RTVSPropertyOp40
 70
     1
102
RTVSPropertyOp41
 70
     1
102
RTVSPropertyOp42
 70
     1
102
RTVSPropertyOp43
 70
     1
102
RTVSPropertyOp44
 70
     1
102
RTVSPropertyOp45
 70
     1
102
RTVSPropertyOp46
 70
     1
102
RTVSPropertyOp47
 70
     1
102
RTVSPropertyOp48
 70
     1
102
RTVSPropertyOp49
 70
     1
102
RTVSPropertyOp50
 70
     1
102
RTVSPropertyOp51
 70
     0
102
RTVSPropertyOp52
 70
     0
102
RTVSPropertyOp53
 70
     1
102
RTVSPropertyOp54
 70
     1
102
RTVSPropertyOp55
 70
     1
102
RTVSPropertyOp56
 70
     1
102
RTVSPropertyOp57
 70
     1
102
RTVSPropertyOp58
 70
     1
102
RTVSPropertyOp59
 70
     1
102
RTVSPropertyOp60
 70
     1
102
RTVSPropertyOp61
 70
     1
102
RTVSPropertyOp62
 70
     1
  0
XRECORD
  5
95A
102
{ACAD_REACTORS
330
959
102
}
330
959
100
AcDbXrecord
280
     1
102
RTVSPost2010Prop28
280
     0
102
RTVSPost2010PropOp28
 70
     1
102
RTVSPost2010Prop29
280
     1
102
RTVSPost2010PropOp29
 70
     1
102
RTVSPost2010Prop30
280
     1
102
RTVSPost2010PropOp30
 70
     1
102
RTVSPost2010Prop31
280
     0
102
RTVSPost2010PropOp31
 70
     1
102
RTVSPost2010Prop32
280
     0
102
RTVSPost2010PropOp32
 70
     1
102
RTVSPost2010Prop33
280
     0
102
RTVSPost2010PropOp33
 70
     1
102
RTVSPost2010Prop34
280
     0
102
RTVSPost2010PropOp34
 70
     1
102
RTVSPost2010Prop35
280
     0
102
RTVSPost2010PropOp35
 70
     1
102
RTVSPost2010Prop36
280
     0
102
RTVSPost2010PropOp36
 70
     1
102
RTVSPost2010Prop37
 90
       50
102
RTVSPost2010PropOp37
 70
     1
102
RTVSPost2010Prop38
140
0.0
102
RTVSPost2010PropOp38
 70
     1
102
RTVSPost2010Prop39
140
1.0
102
RTVSPost2010PropOp39
 70
     1
102
RTVSPost2010Prop40
 90
        0
102
RTVSPost2010PropOp40
 70
     1
102
RTVSPost2010Prop41ColorIndex
 90
       18
102
RTVSPost2010Prop41ColorRGB
 90
        0
102
RTVSPost2010PropOp41
 70
     1
102
RTVSPost2010Prop42
 90
       50
102
RTVSPost2010PropOp42
 70
     1
102
RTVSPost2010Prop43
 90
        3
102
RTVSPost2010PropOp43
 70
     1
102
RTVSPost2010Prop44ColorIndex
 90
        5
102
RTVSPost2010Prop44ColorRGB
 90
      255
102
RTVSPost2010PropOp44
 70
     1
102
RTVSPost2010Prop45
280
     0
102
RTVSPost2010PropOp45
 70
     1
102
RTVSPost2010Prop46
 90
       50
102
RTVSPost2010PropOp46
 70
     1
102
RTVSPost2010Prop47
 90
       50
102
RTVSPost2010PropOp47
 70
     1
102
RTVSPost2010Prop48
 90
       50
102
RTVSPost2010PropOp48
 70
     1
102
RTVSPost2010Prop49
280
     0
102
RTVSPost2010PropOp49
 70
     1
102
RTVSPost2010Prop50
 90
       50
102
RTVSPost2010PropOp50
 70
     1
102
RTVSPost2010Prop51ColorIndex
 90
      256
102
RTVSPost2010Prop51ColorRGB
 90
-16777216
102
RTVSPost2010PropOp51
 70
     0
102
RTVSPost2010Prop52
140
1.0
102
RTVSPost2010PropOp52
 70
     0
102
RTVSPost2010Prop53
 90
        2
102
RTVSPost2010PropOp53
 70
     1
102
RTVSPost2010Prop54
  1
strokes_ogs.tif
102
RTVSPost2010PropOp54
 70
     1
102
RTVSPost2010Prop55
280
     0
102
RTVSPost2010PropOp55
 70
     1
102
RTVSPost2010Prop56
140
1.0
102
RTVSPost2010PropOp56
 70
     1
102
RTVSPost2010Prop57
140
1.0
102
RTVSPost2010PropOp57
 70
     1
102
RTVSPropertyOp0
 70
     1
102
RTVSPropertyOp1
 70
     1
102
RTVSPropertyOp2
 70
     1
102
RTVSPropertyOp3
 70
     1
102
RTVSPropertyOp4
 70
     1
102
RTVSPropertyOp5
 70
     1
102
RTVSPropertyOp6
 70
     1
102
RTVSPropertyOp7
 70
     1
102
RTVSPropertyOp8
 70
     1
102
RTVSPropertyOp9
 70
     1
102
RTVSPropertyOp10
 70
     1
102
RTVSPropertyOp11
 70
     1
102
RTVSPropertyOp12
 70
     1
102
RTVSPropertyOp13
 70
     1
102
RTVSPropertyOp14
 70
     1
102
RTVSPropertyOp15
 70
     1
102
RTVSPropertyOp16
 70
     1
102
RTVSPropertyOp17
 70
     1
102
RTVSPropertyOp18
 70
     1
102
RTVSPropertyOp19
 70
     1
102
RTVSPropertyOp20
 70
     1
102
RTVSPropertyOp21
 70
     1
102
RTVSPropertyOp22
 70
     1
102
RTVSPropertyOp23
 70
     1
102
RTVSPropertyOp24
 70
     1
102
RTVSPropertyOp25
 70
     1
102
RTVSPropertyOp26
 70
     1
102
RTVSPropertyOp27
 70
     1
102
RTVSPropertyOp28
 70
     1
102
RTVSPropertyOp29
 70
     1
102
RTVSPropertyOp30
 70
     1
102
RTVSPropertyOp31
 70
     1
102
RTVSPropertyOp32
 70
     1
102
RTVSPropertyOp33
 70
     1
102
RTVSPropertyOp34
 70
     1
102
RTVSPropertyOp35
 70
     1
102
RTVSPropertyOp36
 70
     1
102
RTVSPropertyOp37
 70
     1
102
RTVSPropertyOp38
 70
     1
102
RTVSPropertyOp39
 70
     1
102
RTVSPropertyOp40
 70
     1
102
RTVSPropertyOp41
 70
     1
102
RTVSPropertyOp42
 70
     1
102
RTVSPropertyOp43
 70
     1
102
RTVSPropertyOp44
 70
     1
102
RTVSPropertyOp45
 70
     1
102
RTVSPropertyOp46
 70
     1
102
RTVSPropertyOp47
 70
     1
102
RTVSPropertyOp48
 70
     1
102
RTVSPropertyOp49
 70
     1
102
RTVSPropertyOp50
 70
     1
102
RTVSPropertyOp51
 70
     0
102
RTVSPropertyOp52
 70
     0
102
RTVSPropertyOp53
 70
     1
102
RTVSPropertyOp54
 70
     1
102
RTVSPropertyOp55
 70
     1
102
RTVSPropertyOp56
 70
     1
102
RTVSPropertyOp57
 70
     1
102
RTVSPropertyOp58
 70
     1
102
RTVSPropertyOp59
 70
     1
102
RTVSPropertyOp60
 70
     1
102
RTVSPropertyOp61
 70
     1
102
RTVSPropertyOp62
 70
     1
  0
XRECORD
  5
976
102
{ACAD_REACTORS
330
975
102
}
330
975
100
AcDbXrecord
280
     1
102
RTVSPost2010Prop28
280
     0
102
RTVSPost2010PropOp28
 70
     0
102
RTVSPost2010Prop29
280
     1
102
RTVSPost2010PropOp29
 70
     0
102
RTVSPost2010Prop30
280
     1
102
RTVSPost2010PropOp30
 70
     0
102
RTVSPost2010Prop31
280
     0
102
RTVSPost2010PropOp31
 70
     0
102
RTVSPost2010Prop32
280
     0
102
RTVSPost2010PropOp32
 70
     0
102
RTVSPost2010Prop33
280
     0
102
RTVSPost2010PropOp33
 70
     0
102
RTVSPost2010Prop34
280
     0
102
RTVSPost2010PropOp34
 70
     0
102
RTVSPost2010Prop35
280
     0
102
RTVSPost2010PropOp35
 70
     0
102
RTVSPost2010Prop36
280
     0
102
RTVSPost2010PropOp36
 70
     0
102
RTVSPost2010Prop37
 90
       50
102
RTVSPost2010PropOp37
 70
     0
102
RTVSPost2010Prop38
140
0.0
102
RTVSPost2010PropOp38
 70
     0
102
RTVSPost2010Prop39
140
1.0
102
RTVSPost2010PropOp39
 70
     0
102
RTVSPost2010Prop40
 90
        0
102
RTVSPost2010PropOp40
 70
     0
102
RTVSPost2010Prop41ColorIndex
 90
       18
102
RTVSPost2010Prop41ColorRGB
 90
        0
102
RTVSPost2010PropOp41
 70
     0
102
RTVSPost2010Prop42
 90
       50
102
RTVSPost2010PropOp42
 70
     0
102
RTVSPost2010Prop43
 90
        3
102
RTVSPost2010PropOp43
 70
     0
102
RTVSPost2010Prop44ColorIndex
 90
        5
102
RTVSPost2010Prop44ColorRGB
 90
      255
102
RTVSPost2010PropOp44
 70
     0
102
RTVSPost2010Prop45
280
     0
102
RTVSPost2010PropOp45
 70
     0
102
RTVSPost2010Prop46
 90
       50
102
RTVSPost2010PropOp46
 70
     0
102
RTVSPost2010Prop47
 90
       50
102
RTVSPost2010PropOp47
 70
     0
102
RTVSPost2010Prop48
 90
       50
102
RTVSPost2010PropOp48
 70
     0
102
RTVSPost2010Prop49
280
     0
102
RTVSPost2010PropOp49
 70
     0
102
RTVSPost2010Prop50
 90
       50
102
RTVSPost2010PropOp50
 70
     0
102
RTVSPost2010Prop51ColorIndex
 90
      256
102
RTVSPost2010Prop51ColorRGB
 90
-16777216
102
RTVSPost2010PropOp51
 70
     0
102
RTVSPost2010Prop52
140
1.0
102
RTVSPost2010PropOp52
 70
     0
102
RTVSPost2010Prop53
 90
        2
102
RTVSPost2010PropOp53
 70
     0
102
RTVSPost2010Prop54
  1
strokes_ogs.tif
102
RTVSPost2010PropOp54
 70
     0
102
RTVSPost2010Prop55
280
     0
102
RTVSPost2010PropOp55
 70
     0
102
RTVSPost2010Prop56
140
1.0
102
RTVSPost2010PropOp56
 70
     0
102
RTVSPost2010Prop57
140
1.0
102
RTVSPost2010PropOp57
 70
     0
102
RTVSPropertyOp0
 70
     0
102
RTVSPropertyOp1
 70
     0
102
RTVSPropertyOp2
 70
     0
102
RTVSPropertyOp3
 70
     0
102
RTVSPropertyOp4
 70
     0
102
RTVSPropertyOp5
 70
     0
102
RTVSPropertyOp6
 70
     0
102
RTVSPropertyOp7
 70
     0
102
RTVSPropertyOp8
 70
     0
102
RTVSPropertyOp9
 70
     0
102
RTVSPropertyOp10
 70
     0
102
RTVSPropertyOp11
 70
     0
102
RTVSPropertyOp12
 70
     0
102
RTVSPropertyOp13
 70
     0
102
RTVSPropertyOp14
 70
     2
102
RTVSPropertyOp15
 70
     0
102
RTVSPropertyOp16
 70
     0
102
RTVSPropertyOp17
 70
     0
102
RTVSPropertyOp18
 70
     0
102
RTVSPropertyOp19
 70
     0
102
RTVSPropertyOp20
 70
     0
102
RTVSPropertyOp21
 70
     0
102
RTVSPropertyOp22
 70
     0
102
RTVSPropertyOp23
 70
     0
102
RTVSPropertyOp24
 70
     0
102
RTVSPropertyOp25
 70
     0
102
RTVSPropertyOp26
 70
     0
102
RTVSPropertyOp27
 70
     0
102
RTVSPropertyOp28
 70
     0
102
RTVSPropertyOp29
 70
     0
102
RTVSPropertyOp30
 70
     0
102
RTVSPropertyOp31
 70
     0
102
RTVSPropertyOp32
 70
     0
102
RTVSPropertyOp33
 70
     0
102
RTVSPropertyOp34
 70
     0
102
RTVSPropertyOp35
 70
     0
102
RTVSPropertyOp36
 70
     0
102
RTVSPropertyOp37
 70
     0
102
RTVSPropertyOp38
 70
     0
102
RTVSPropertyOp39
 70
     0
102
RTVSPropertyOp40
 70
     0
102
RTVSPropertyOp41
 70
     0
102
RTVSPropertyOp42
 70
     0
102
RTVSPropertyOp43
 70
     0
102
RTVSPropertyOp44
 70
     0
102
RTVSPropertyOp45
 70
     0
102
RTVSPropertyOp46
 70
     0
102
RTVSPropertyOp47
 70
     0
102
RTVSPropertyOp48
 70
     0
102
RTVSPropertyOp49
 70
     0
102
RTVSPropertyOp50
 70
     0
102
RTVSPropertyOp51
 70
     0
102
RTVSPropertyOp52
 70
     0
102
RTVSPropertyOp53
 70
     0
102
RTVSPropertyOp54
 70
     0
102
RTVSPropertyOp55
 70
     0
102
RTVSPropertyOp56
 70
     0
102
RTVSPropertyOp57
 70
     0
102
RTVSPropertyOp58
 70
     0
102
RTVSPropertyOp59
 70
     0
102
RTVSPropertyOp60
 70
     0
102
RTVSPropertyOp61
 70
     0
102
RTVSPropertyOp62
 70
     0
  0
XRECORD
  5
966
102
{ACAD_REACTORS
330
965
102
}
330
965
100
AcDbXrecord
280
     1
102
RTVSPost2010Prop28
280
     0
102
RTVSPost2010PropOp28
 70
     1
102
RTVSPost2010Prop29
280
     1
102
RTVSPost2010PropOp29
 70
     1
102
RTVSPost2010Prop30
280
     1
102
RTVSPost2010PropOp30
 70
     1
102
RTVSPost2010Prop31
280
     0
102
RTVSPost2010PropOp31
 70
     1
102
RTVSPost2010Prop32
280
     0
102
RTVSPost2010PropOp32
 70
     1
102
RTVSPost2010Prop33
280
     0
102
RTVSPost2010PropOp33
 70
     1
102
RTVSPost2010Prop34
280
     0
102
RTVSPost2010PropOp34
 70
     1
102
RTVSPost2010Prop35
280
     0
102
RTVSPost2010PropOp35
 70
     1
102
RTVSPost2010Prop36
280
     0
102
RTVSPost2010PropOp36
 70
     1
102
RTVSPost2010Prop37
 90
       50
102
RTVSPost2010PropOp37
 70
     1
102
RTVSPost2010Prop38
140
0.0
102
RTVSPost2010PropOp38
 70
     1
102
RTVSPost2010Prop39
140
1.0
102
RTVSPost2010PropOp39
 70
     1
102
RTVSPost2010Prop40
 90
        0
102
RTVSPost2010PropOp40
 70
     1
102
RTVSPost2010Prop41ColorIndex
 90
       18
102
RTVSPost2010Prop41ColorRGB
 90
        0
102
RTVSPost2010PropOp41
 70
     1
102
RTVSPost2010Prop42
 90
       50
102
RTVSPost2010PropOp42
 70
     1
102
RTVSPost2010Prop43
 90
        3
102
RTVSPost2010PropOp43
 70
     1
102
RTVSPost2010Prop44ColorIndex
 90
        5
102
RTVSPost2010Prop44ColorRGB
 90
      255
102
RTVSPost2010PropOp44
 70
     1
102
RTVSPost2010Prop45
280
     0
102
RTVSPost2010PropOp45
 70
     1
102
RTVSPost2010Prop46
 90
       50
102
RTVSPost2010PropOp46
 70
     1
102
RTVSPost2010Prop47
 90
       50
102
RTVSPost2010PropOp47
 70
     1
102
RTVSPost2010Prop48
 90
       50
102
RTVSPost2010PropOp48
 70
     1
102
RTVSPost2010Prop49
280
     0
102
RTVSPost2010PropOp49
 70
     1
102
RTVSPost2010Prop50
 90
       50
102
RTVSPost2010PropOp50
 70
     1
102
RTVSPost2010Prop51ColorIndex
 90
      256
102
RTVSPost2010Prop51ColorRGB
 90
-16777216
102
RTVSPost2010PropOp51
 70
     0
102
RTVSPost2010Prop52
140
1.0
102
RTVSPost2010PropOp52
 70
     0
102
RTVSPost2010Prop53
 90
        2
102
RTVSPost2010PropOp53
 70
     1
102
RTVSPost2010Prop54
  1
strokes_ogs.tif
102
RTVSPost2010PropOp54
 70
     1
102
RTVSPost2010Prop55
280
     0
102
RTVSPost2010PropOp55
 70
     1
102
RTVSPost2010Prop56
140
1.0
102
RTVSPost2010PropOp56
 70
     1
102
RTVSPost2010Prop57
140
1.0
102
RTVSPost2010PropOp57
 70
     1
102
RTVSPropertyOp0
 70
     1
102
RTVSPropertyOp1
 70
     1
102
RTVSPropertyOp2
 70
     1
102
RTVSPropertyOp3
 70
     1
102
RTVSPropertyOp4
 70
     1
102
RTVSPropertyOp5
 70
     1
102
RTVSPropertyOp6
 70
     1
102
RTVSPropertyOp7
 70
     1
102
RTVSPropertyOp8
 70
     1
102
RTVSPropertyOp9
 70
     1
102
RTVSPropertyOp10
 70
     1
102
RTVSPropertyOp11
 70
     1
102
RTVSPropertyOp12
 70
     1
102
RTVSPropertyOp13
 70
     1
102
RTVSPropertyOp14
 70
     1
102
RTVSPropertyOp15
 70
     1
102
RTVSPropertyOp16
 70
     1
102
RTVSPropertyOp17
 70
     1
102
RTVSPropertyOp18
 70
     1
102
RTVSPropertyOp19
 70
     1
102
RTVSPropertyOp20
 70
     1
102
RTVSPropertyOp21
 70
     1
102
RTVSPropertyOp22
 70
     1
102
RTVSPropertyOp23
 70
     1
102
RTVSPropertyOp24
 70
     1
102
RTVSPropertyOp25
 70
     1
102
RTVSPropertyOp26
 70
     1
102
RTVSPropertyOp27
 70
     1
102
RTVSPropertyOp28
 70
     1
102
RTVSPropertyOp29
 70
     1
102
RTVSPropertyOp30
 70
     1
102
RTVSPropertyOp31
 70
     1
102
RTVSPropertyOp32
 70
     1
102
RTVSPropertyOp33
 70
     1
102
RTVSPropertyOp34
 70
     1
102
RTVSPropertyOp35
 70
     1
102
RTVSPropertyOp36
 70
     1
102
RTVSPropertyOp37
 70
     1
102
RTVSPropertyOp38
 70
     1
102
RTVSPropertyOp39
 70
     1
102
RTVSPropertyOp40
 70
     1
102
RTVSPropertyOp41
 70
     1
102
RTVSPropertyOp42
 70
     1
102
RTVSPropertyOp43
 70
     1
102
RTVSPropertyOp44
 70
     1
102
RTVSPropertyOp45
 70
     1
102
RTVSPropertyOp46
 70
     1
102
RTVSPropertyOp47
 70
     1
102
RTVSPropertyOp48
 70
     1
102
RTVSPropertyOp49
 70
     1
102
RTVSPropertyOp50
 70
     1
102
RTVSPropertyOp51
 70
     0
102
RTVSPropertyOp52
 70
     0
102
RTVSPropertyOp53
 70
     1
102
RTVSPropertyOp54
 70
     1
102
RTVSPropertyOp55
 70
     1
102
RTVSPropertyOp56
 70
     1
102
RTVSPropertyOp57
 70
     1
102
RTVSPropertyOp58
 70
     1
102
RTVSPropertyOp59
 70
     1
102
RTVSPropertyOp60
 70
     1
102
RTVSPropertyOp61
 70
     1
102
RTVSPropertyOp62
 70
     1
  0
XRECORD
  5
978
102
{ACAD_REACTORS
330
977
102
}
330
977
100
AcDbXrecord
280
     1
102
RTVSPost2010Prop28
280
     0
102
RTVSPost2010PropOp28
 70
     0
102
RTVSPost2010Prop29
280
     1
102
RTVSPost2010PropOp29
 70
     0
102
RTVSPost2010Prop30
280
     1
102
RTVSPost2010PropOp30
 70
     0
102
RTVSPost2010Prop31
280
     0
102
RTVSPost2010PropOp31
 70
     0
102
RTVSPost2010Prop32
280
     0
102
RTVSPost2010PropOp32
 70
     0
102
RTVSPost2010Prop33
280
     0
102
RTVSPost2010PropOp33
 70
     0
102
RTVSPost2010Prop34
280
     0
102
RTVSPost2010PropOp34
 70
     0
102
RTVSPost2010Prop35
280
     0
102
RTVSPost2010PropOp35
 70
     0
102
RTVSPost2010Prop36
280
     0
102
RTVSPost2010PropOp36
 70
     0
102
RTVSPost2010Prop37
 90
       50
102
RTVSPost2010PropOp37
 70
     0
102
RTVSPost2010Prop38
140
0.0
102
RTVSPost2010PropOp38
 70
     0
102
RTVSPost2010Prop39
140
1.0
102
RTVSPost2010PropOp39
 70
     0
102
RTVSPost2010Prop40
 90
        0
102
RTVSPost2010PropOp40
 70
     0
102
RTVSPost2010Prop41ColorIndex
 90
       18
102
RTVSPost2010Prop41ColorRGB
 90
        0
102
RTVSPost2010PropOp41
 70
     0
102
RTVSPost2010Prop42
 90
       50
102
RTVSPost2010PropOp42
 70
     0
102
RTVSPost2010Prop43
 90
        3
102
RTVSPost2010PropOp43
 70
     0
102
RTVSPost2010Prop44ColorIndex
 90
        5
102
RTVSPost2010Prop44ColorRGB
 90
      255
102
RTVSPost2010PropOp44
 70
     0
102
RTVSPost2010Prop45
280
     0
102
RTVSPost2010PropOp45
 70
     0
102
RTVSPost2010Prop46
 90
       50
102
RTVSPost2010PropOp46
 70
     0
102
RTVSPost2010Prop47
 90
       50
102
RTVSPost2010PropOp47
 70
     0
102
RTVSPost2010Prop48
 90
       50
102
RTVSPost2010PropOp48
 70
     0
102
RTVSPost2010Prop49
280
     0
102
RTVSPost2010PropOp49
 70
     0
102
RTVSPost2010Prop50
 90
       50
102
RTVSPost2010PropOp50
 70
     0
102
RTVSPost2010Prop51ColorIndex
 90
      256
102
RTVSPost2010Prop51ColorRGB
 90
-16777216
102
RTVSPost2010PropOp51
 70
     0
102
RTVSPost2010Prop52
140
1.0
102
RTVSPost2010PropOp52
 70
     0
102
RTVSPost2010Prop53
 90
        2
102
RTVSPost2010PropOp53
 70
     0
102
RTVSPost2010Prop54
  1
strokes_ogs.tif
102
RTVSPost2010PropOp54
 70
     0
102
RTVSPost2010Prop55
280
     0
102
RTVSPost2010PropOp55
 70
     0
102
RTVSPost2010Prop56
140
1.0
102
RTVSPost2010PropOp56
 70
     0
102
RTVSPost2010Prop57
140
1.0
102
RTVSPost2010PropOp57
 70
     0
102
RTVSPropertyOp0
 70
     0
102
RTVSPropertyOp1
 70
     0
102
RTVSPropertyOp2
 70
     0
102
RTVSPropertyOp3
 70
     0
102
RTVSPropertyOp4
 70
     0
102
RTVSPropertyOp5
 70
     0
102
RTVSPropertyOp6
 70
     0
102
RTVSPropertyOp7
 70
     0
102
RTVSPropertyOp8
 70
     0
102
RTVSPropertyOp9
 70
     0
102
RTVSPropertyOp10
 70
     0
102
RTVSPropertyOp11
 70
     0
102
RTVSPropertyOp12
 70
     0
102
RTVSPropertyOp13
 70
     0
102
RTVSPropertyOp14
 70
     2
102
RTVSPropertyOp15
 70
     0
102
RTVSPropertyOp16
 70
     0
102
RTVSPropertyOp17
 70
     0
102
RTVSPropertyOp18
 70
     0
102
RTVSPropertyOp19
 70
     0
102
RTVSPropertyOp20
 70
     0
102
RTVSPropertyOp21
 70
     0
102
RTVSPropertyOp22
 70
     0
102
RTVSPropertyOp23
 70
     0
102
RTVSPropertyOp24
 70
     0
102
RTVSPropertyOp25
 70
     0
102
RTVSPropertyOp26
 70
     0
102
RTVSPropertyOp27
 70
     0
102
RTVSPropertyOp28
 70
     0
102
RTVSPropertyOp29
 70
     0
102
RTVSPropertyOp30
 70
     0
102
RTVSPropertyOp31
 70
     0
102
RTVSPropertyOp32
 70
     0
102
RTVSPropertyOp33
 70
     0
102
RTVSPropertyOp34
 70
     0
102
RTVSPropertyOp35
 70
     0
102
RTVSPropertyOp36
 70
     0
102
RTVSPropertyOp37
 70
     0
102
RTVSPropertyOp38
 70
     0
102
RTVSPropertyOp39
 70
     0
102
RTVSPropertyOp40
 70
     0
102
RTVSPropertyOp41
 70
     0
102
RTVSPropertyOp42
 70
     0
102
RTVSPropertyOp43
 70
     0
102
RTVSPropertyOp44
 70
     0
102
RTVSPropertyOp45
 70
     0
102
RTVSPropertyOp46
 70
     0
102
RTVSPropertyOp47
 70
     0
102
RTVSPropertyOp48
 70
     0
102
RTVSPropertyOp49
 70
     0
102
RTVSPropertyOp50
 70
     0
102
RTVSPropertyOp51
 70
     0
102
RTVSPropertyOp52
 70
     0
102
RTVSPropertyOp53
 70
     0
102
RTVSPropertyOp54
 70
     0
102
RTVSPropertyOp55
 70
     0
102
RTVSPropertyOp56
 70
     0
102
RTVSPropertyOp57
 70
     0
102
RTVSPropertyOp58
 70
     0
102
RTVSPropertyOp59
 70
     0
102
RTVSPropertyOp60
 70
     0
102
RTVSPropertyOp61
 70
     0
102
RTVSPropertyOp62
 70
     0
  0
XRECORD
  5
95E
102
{ACAD_REACTORS
330
95D
102
}
330
95D
100
AcDbXrecord
280
     1
102
RTVSPost2010Prop28
280
     0
102
RTVSPost2010PropOp28
 70
     1
102
RTVSPost2010Prop29
280
     1
102
RTVSPost2010PropOp29
 70
     1
102
RTVSPost2010Prop30
280
     1
102
RTVSPost2010PropOp30
 70
     1
102
RTVSPost2010Prop31
280
     0
102
RTVSPost2010PropOp31
 70
     1
102
RTVSPost2010Prop32
280
     0
102
RTVSPost2010PropOp32
 70
     1
102
RTVSPost2010Prop33
280
     0
102
RTVSPost2010PropOp33
 70
     1
102
RTVSPost2010Prop34
280
     0
102
RTVSPost2010PropOp34
 70
     1
102
RTVSPost2010Prop35
280
     0
102
RTVSPost2010PropOp35
 70
     1
102
RTVSPost2010Prop36
280
     0
102
RTVSPost2010PropOp36
 70
     1
102
RTVSPost2010Prop37
 90
       50
102
RTVSPost2010PropOp37
 70
     1
102
RTVSPost2010Prop38
140
0.0
102
RTVSPost2010PropOp38
 70
     1
102
RTVSPost2010Prop39
140
1.0
102
RTVSPost2010PropOp39
 70
     1
102
RTVSPost2010Prop40
 90
        0
102
RTVSPost2010PropOp40
 70
     1
102
RTVSPost2010Prop41ColorIndex
 90
       18
102
RTVSPost2010Prop41ColorRGB
 90
        0
102
RTVSPost2010PropOp41
 70
     1
102
RTVSPost2010Prop42
 90
       50
102
RTVSPost2010PropOp42
 70
     1
102
RTVSPost2010Prop43
 90
        3
102
RTVSPost2010PropOp43
 70
     1
102
RTVSPost2010Prop44ColorIndex
 90
        5
102
RTVSPost2010Prop44ColorRGB
 90
      255
102
RTVSPost2010PropOp44
 70
     1
102
RTVSPost2010Prop45
280
     0
102
RTVSPost2010PropOp45
 70
     1
102
RTVSPost2010Prop46
 90
       50
102
RTVSPost2010PropOp46
 70
     1
102
RTVSPost2010Prop47
 90
       50
102
RTVSPost2010PropOp47
 70
     1
102
RTVSPost2010Prop48
 90
       50
102
RTVSPost2010PropOp48
 70
     1
102
RTVSPost2010Prop49
280
     0
102
RTVSPost2010PropOp49
 70
     1
102
RTVSPost2010Prop50
 90
       50
102
RTVSPost2010PropOp50
 70
     1
102
RTVSPost2010Prop51ColorIndex
 90
      256
102
RTVSPost2010Prop51ColorRGB
 90
-16777216
102
RTVSPost2010PropOp51
 70
     0
102
RTVSPost2010Prop52
140
1.0
102
RTVSPost2010PropOp52
 70
     0
102
RTVSPost2010Prop53
 90
        2
102
RTVSPost2010PropOp53
 70
     1
102
RTVSPost2010Prop54
  1
strokes_ogs.tif
102
RTVSPost2010PropOp54
 70
     1
102
RTVSPost2010Prop55
280
     0
102
RTVSPost2010PropOp55
 70
     1
102
RTVSPost2010Prop56
140
1.0
102
RTVSPost2010PropOp56
 70
     1
102
RTVSPost2010Prop57
140
1.0
102
RTVSPost2010PropOp57
 70
     1
102
RTVSPropertyOp0
 70
     1
102
RTVSPropertyOp1
 70
     1
102
RTVSPropertyOp2
 70
     1
102
RTVSPropertyOp3
 70
     1
102
RTVSPropertyOp4
 70
     1
102
RTVSPropertyOp5
 70
     1
102
RTVSPropertyOp6
 70
     1
102
RTVSPropertyOp7
 70
     1
102
RTVSPropertyOp8
 70
     1
102
RTVSPropertyOp9
 70
     1
102
RTVSPropertyOp10
 70
     1
102
RTVSPropertyOp11
 70
     1
102
RTVSPropertyOp12
 70
     1
102
RTVSPropertyOp13
 70
     1
102
RTVSPropertyOp14
 70
     1
102
RTVSPropertyOp15
 70
     1
102
RTVSPropertyOp16
 70
     1
102
RTVSPropertyOp17
 70
     1
102
RTVSPropertyOp18
 70
     1
102
RTVSPropertyOp19
 70
     1
102
RTVSPropertyOp20
 70
     1
102
RTVSPropertyOp21
 70
     1
102
RTVSPropertyOp22
 70
     1
102
RTVSPropertyOp23
 70
     1
102
RTVSPropertyOp24
 70
     1
102
RTVSPropertyOp25
 70
     1
102
RTVSPropertyOp26
 70
     1
102
RTVSPropertyOp27
 70
     1
102
RTVSPropertyOp28
 70
     1
102
RTVSPropertyOp29
 70
     1
102
RTVSPropertyOp30
 70
     1
102
RTVSPropertyOp31
 70
     1
102
RTVSPropertyOp32
 70
     1
102
RTVSPropertyOp33
 70
     1
102
RTVSPropertyOp34
 70
     1
102
RTVSPropertyOp35
 70
     1
102
RTVSPropertyOp36
 70
     1
102
RTVSPropertyOp37
 70
     1
102
RTVSPropertyOp38
 70
     1
102
RTVSPropertyOp39
 70
     1
102
RTVSPropertyOp40
 70
     1
102
RTVSPropertyOp41
 70
     1
102
RTVSPropertyOp42
 70
     1
102
RTVSPropertyOp43
 70
     1
102
RTVSPropertyOp44
 70
     1
102
RTVSPropertyOp45
 70
     1
102
RTVSPropertyOp46
 70
     1
102
RTVSPropertyOp47
 70
     1
102
RTVSPropertyOp48
 70
     1
102
RTVSPropertyOp49
 70
     1
102
RTVSPropertyOp50
 70
     1
102
RTVSPropertyOp51
 70
     0
102
RTVSPropertyOp52
 70
     0
102
RTVSPropertyOp53
 70
     1
102
RTVSPropertyOp54
 70
     1
102
RTVSPropertyOp55
 70
     1
102
RTVSPropertyOp56
 70
     1
102
RTVSPropertyOp57
 70
     1
102
RTVSPropertyOp58
 70
     1
102
RTVSPropertyOp59
 70
     1
102
RTVSPropertyOp60
 70
     1
102
RTVSPropertyOp61
 70
     1
102
RTVSPropertyOp62
 70
     1
  0
XRECORD
  5
974
102
{ACAD_REACTORS
330
973
102
}
330
973
100
AcDbXrecord
280
     1
102
RTVSPost2010Prop28
280
     0
102
RTVSPost2010PropOp28
 70
     1
102
RTVSPost2010Prop29
280
     1
102
RTVSPost2010PropOp29
 70
     1
102
RTVSPost2010Prop30
280
     1
102
RTVSPost2010PropOp30
 70
     1
102
RTVSPost2010Prop31
280
     0
102
RTVSPost2010PropOp31
 70
     1
102
RTVSPost2010Prop32
280
     0
102
RTVSPost2010PropOp32
 70
     1
102
RTVSPost2010Prop33
280
     0
102
RTVSPost2010PropOp33
 70
     1
102
RTVSPost2010Prop34
280
     0
102
RTVSPost2010PropOp34
 70
     1
102
RTVSPost2010Prop35
280
     0
102
RTVSPost2010PropOp35
 70
     1
102
RTVSPost2010Prop36
280
     0
102
RTVSPost2010PropOp36
 70
     1
102
RTVSPost2010Prop37
 90
       50
102
RTVSPost2010PropOp37
 70
     1
102
RTVSPost2010Prop38
140
0.0
102
RTVSPost2010PropOp38
 70
     1
102
RTVSPost2010Prop39
140
1.0
102
RTVSPost2010PropOp39
 70
     1
102
RTVSPost2010Prop40
 90
        0
102
RTVSPost2010PropOp40
 70
     1
102
RTVSPost2010Prop41ColorIndex
 90
       18
102
RTVSPost2010Prop41ColorRGB
 90
        0
102
RTVSPost2010PropOp41
 70
     1
102
RTVSPost2010Prop42
 90
       50
102
RTVSPost2010PropOp42
 70
     1
102
RTVSPost2010Prop43
 90
        3
102
RTVSPost2010PropOp43
 70
     1
102
RTVSPost2010Prop44ColorIndex
 90
        5
102
RTVSPost2010Prop44ColorRGB
 90
      255
102
RTVSPost2010PropOp44
 70
     1
102
RTVSPost2010Prop45
280
     0
102
RTVSPost2010PropOp45
 70
     1
102
RTVSPost2010Prop46
 90
       50
102
RTVSPost2010PropOp46
 70
     1
102
RTVSPost2010Prop47
 90
       50
102
RTVSPost2010PropOp47
 70
     1
102
RTVSPost2010Prop48
 90
       50
102
RTVSPost2010PropOp48
 70
     1
102
RTVSPost2010Prop49
280
     0
102
RTVSPost2010PropOp49
 70
     1
102
RTVSPost2010Prop50
 90
       50
102
RTVSPost2010PropOp50
 70
     1
102
RTVSPost2010Prop51ColorIndex
 90
      256
102
RTVSPost2010Prop51ColorRGB
 90
-16777216
102
RTVSPost2010PropOp51
 70
     0
102
RTVSPost2010Prop52
140
1.0
102
RTVSPost2010PropOp52
 70
     0
102
RTVSPost2010Prop53
 90
        2
102
RTVSPost2010PropOp53
 70
     1
102
RTVSPost2010Prop54
  1
strokes_ogs.tif
102
RTVSPost2010PropOp54
 70
     1
102
RTVSPost2010Prop55
280
     0
102
RTVSPost2010PropOp55
 70
     1
102
RTVSPost2010Prop56
140
1.0
102
RTVSPost2010PropOp56
 70
     1
102
RTVSPost2010Prop57
140
1.0
102
RTVSPost2010PropOp57
 70
     1
102
RTVSPropertyOp0
 70
     1
102
RTVSPropertyOp1
 70
     1
102
RTVSPropertyOp2
 70
     1
102
RTVSPropertyOp3
 70
     1
102
RTVSPropertyOp4
 70
     1
102
RTVSPropertyOp5
 70
     1
102
RTVSPropertyOp6
 70
     1
102
RTVSPropertyOp7
 70
     1
102
RTVSPropertyOp8
 70
     1
102
RTVSPropertyOp9
 70
     1
102
RTVSPropertyOp10
 70
     1
102
RTVSPropertyOp11
 70
     1
102
RTVSPropertyOp12
 70
     1
102
RTVSPropertyOp13
 70
     1
102
RTVSPropertyOp14
 70
     1
102
RTVSPropertyOp15
 70
     1
102
RTVSPropertyOp16
 70
     1
102
RTVSPropertyOp17
 70
     1
102
RTVSPropertyOp18
 70
     1
102
RTVSPropertyOp19
 70
     1
102
RTVSPropertyOp20
 70
     1
102
RTVSPropertyOp21
 70
     1
102
RTVSPropertyOp22
 70
     1
102
RTVSPropertyOp23
 70
     1
102
RTVSPropertyOp24
 70
     1
102
RTVSPropertyOp25
 70
     1
102
RTVSPropertyOp26
 70
     1
102
RTVSPropertyOp27
 70
     1
102
RTVSPropertyOp28
 70
     1
102
RTVSPropertyOp29
 70
     1
102
RTVSPropertyOp30
 70
     1
102
RTVSPropertyOp31
 70
     1
102
RTVSPropertyOp32
 70
     1
102
RTVSPropertyOp33
 70
     1
102
RTVSPropertyOp34
 70
     1
102
RTVSPropertyOp35
 70
     1
102
RTVSPropertyOp36
 70
     1
102
RTVSPropertyOp37
 70
     1
102
RTVSPropertyOp38
 70
     1
102
RTVSPropertyOp39
 70
     1
102
RTVSPropertyOp40
 70
     1
102
RTVSPropertyOp41
 70
     1
102
RTVSPropertyOp42
 70
     1
102
RTVSPropertyOp43
 70
     1
102
RTVSPropertyOp44
 70
     1
102
RTVSPropertyOp45
 70
     1
102
RTVSPropertyOp46
 70
     1
102
RTVSPropertyOp47
 70
     1
102
RTVSPropertyOp48
 70
     1
102
RTVSPropertyOp49
 70
     1
102
RTVSPropertyOp50
 70
     1
102
RTVSPropertyOp51
 70
     0
102
RTVSPropertyOp52
 70
     0
102
RTVSPropertyOp53
 70
     1
102
RTVSPropertyOp54
 70
     1
102
RTVSPropertyOp55
 70
     1
102
RTVSPropertyOp56
 70
     1
102
RTVSPropertyOp57
 70
     1
102
RTVSPropertyOp58
 70
     1
102
RTVSPropertyOp59
 70
     1
102
RTVSPropertyOp60
 70
     1
102
RTVSPropertyOp61
 70
     1
102
RTVSPropertyOp62
 70
     1
  0
XRECORD
  5
972
102
{ACAD_REACTORS
330
971
102
}
330
971
100
AcDbXrecord
280
     1
102
RTVSPost2010Prop28
280
     0
102
RTVSPost2010PropOp28
 70
     1
102
RTVSPost2010Prop29
280
     1
102
RTVSPost2010PropOp29
 70
     1
102
RTVSPost2010Prop30
280
     1
102
RTVSPost2010PropOp30
 70
     1
102
RTVSPost2010Prop31
280
     0
102
RTVSPost2010PropOp31
 70
     1
102
RTVSPost2010Prop32
280
     0
102
RTVSPost2010PropOp32
 70
     1
102
RTVSPost2010Prop33
280
     0
102
RTVSPost2010PropOp33
 70
     1
102
RTVSPost2010Prop34
280
     0
102
RTVSPost2010PropOp34
 70
     1
102
RTVSPost2010Prop35
280
     0
102
RTVSPost2010PropOp35
 70
     1
102
RTVSPost2010Prop36
280
     0
102
RTVSPost2010PropOp36
 70
     1
102
RTVSPost2010Prop37
 90
       50
102
RTVSPost2010PropOp37
 70
     1
102
RTVSPost2010Prop38
140
0.0
102
RTVSPost2010PropOp38
 70
     1
102
RTVSPost2010Prop39
140
1.0
102
RTVSPost2010PropOp39
 70
     1
102
RTVSPost2010Prop40
 90
        0
102
RTVSPost2010PropOp40
 70
     1
102
RTVSPost2010Prop41ColorIndex
 90
       18
102
RTVSPost2010Prop41ColorRGB
 90
        0
102
RTVSPost2010PropOp41
 70
     1
102
RTVSPost2010Prop42
 90
       50
102
RTVSPost2010PropOp42
 70
     1
102
RTVSPost2010Prop43
 90
        3
102
RTVSPost2010PropOp43
 70
     1
102
RTVSPost2010Prop44ColorIndex
 90
        5
102
RTVSPost2010Prop44ColorRGB
 90
      255
102
RTVSPost2010PropOp44
 70
     1
102
RTVSPost2010Prop45
280
     0
102
RTVSPost2010PropOp45
 70
     1
102
RTVSPost2010Prop46
 90
       50
102
RTVSPost2010PropOp46
 70
     1
102
RTVSPost2010Prop47
 90
       50
102
RTVSPost2010PropOp47
 70
     1
102
RTVSPost2010Prop48
 90
       50
102
RTVSPost2010PropOp48
 70
     1
102
RTVSPost2010Prop49
280
     0
102
RTVSPost2010PropOp49
 70
     1
102
RTVSPost2010Prop50
 90
       50
102
RTVSPost2010PropOp50
 70
     1
102
RTVSPost2010Prop51ColorIndex
 90
      256
102
RTVSPost2010Prop51ColorRGB
 90
-16777216
102
RTVSPost2010PropOp51
 70
     0
102
RTVSPost2010Prop52
140
1.0
102
RTVSPost2010PropOp52
 70
     0
102
RTVSPost2010Prop53
 90
        2
102
RTVSPost2010PropOp53
 70
     1
102
RTVSPost2010Prop54
  1
strokes_ogs.tif
102
RTVSPost2010PropOp54
 70
     1
102
RTVSPost2010Prop55
280
     0
102
RTVSPost2010PropOp55
 70
     1
102
RTVSPost2010Prop56
140
1.0
102
RTVSPost2010PropOp56
 70
     1
102
RTVSPost2010Prop57
140
1.0
102
RTVSPost2010PropOp57
 70
     1
102
RTVSPropertyOp0
 70
     1
102
RTVSPropertyOp1
 70
     1
102
RTVSPropertyOp2
 70
     1
102
RTVSPropertyOp3
 70
     1
102
RTVSPropertyOp4
 70
     1
102
RTVSPropertyOp5
 70
     1
102
RTVSPropertyOp6
 70
     1
102
RTVSPropertyOp7
 70
     1
102
RTVSPropertyOp8
 70
     1
102
RTVSPropertyOp9
 70
     1
102
RTVSPropertyOp10
 70
     1
102
RTVSPropertyOp11
 70
     1
102
RTVSPropertyOp12
 70
     1
102
RTVSPropertyOp13
 70
     1
102
RTVSPropertyOp14
 70
     1
102
RTVSPropertyOp15
 70
     1
102
RTVSPropertyOp16
 70
     1
102
RTVSPropertyOp17
 70
     1
102
RTVSPropertyOp18
 70
     1
102
RTVSPropertyOp19
 70
     1
102
RTVSPropertyOp20
 70
     1
102
RTVSPropertyOp21
 70
     1
102
RTVSPropertyOp22
 70
     1
102
RTVSPropertyOp23
 70
     1
102
RTVSPropertyOp24
 70
     1
102
RTVSPropertyOp25
 70
     1
102
RTVSPropertyOp26
 70
     1
102
RTVSPropertyOp27
 70
     1
102
RTVSPropertyOp28
 70
     1
102
RTVSPropertyOp29
 70
     1
102
RTVSPropertyOp30
 70
     1
102
RTVSPropertyOp31
 70
     1
102
RTVSPropertyOp32
 70
     1
102
RTVSPropertyOp33
 70
     1
102
RTVSPropertyOp34
 70
     1
102
RTVSPropertyOp35
 70
     1
102
RTVSPropertyOp36
 70
     1
102
RTVSPropertyOp37
 70
     1
102
RTVSPropertyOp38
 70
     1
102
RTVSPropertyOp39
 70
     1
102
RTVSPropertyOp40
 70
     1
102
RTVSPropertyOp41
 70
     1
102
RTVSPropertyOp42
 70
     1
102
RTVSPropertyOp43
 70
     1
102
RTVSPropertyOp44
 70
     1
102
RTVSPropertyOp45
 70
     1
102
RTVSPropertyOp46
 70
     1
102
RTVSPropertyOp47
 70
     1
102
RTVSPropertyOp48
 70
     1
102
RTVSPropertyOp49
 70
     1
102
RTVSPropertyOp50
 70
     1
102
RTVSPropertyOp51
 70
     0
102
RTVSPropertyOp52
 70
     0
102
RTVSPropertyOp53
 70
     1
102
RTVSPropertyOp54
 70
     1
102
RTVSPropertyOp55
 70
     1
102
RTVSPropertyOp56
 70
     1
102
RTVSPropertyOp57
 70
     1
102
RTVSPropertyOp58
 70
     1
102
RTVSPropertyOp59
 70
     1
102
RTVSPropertyOp60
 70
     1
102
RTVSPropertyOp61
 70
     1
102
RTVSPropertyOp62
 70
     1
  0
XRECORD
  5
96C
102
{ACAD_REACTORS
330
96B
102
}
330
96B
100
AcDbXrecord
280
     1
102
RTVSPost2010Prop28
280
     0
102
RTVSPost2010PropOp28
 70
     1
102
RTVSPost2010Prop29
280
     1
102
RTVSPost2010PropOp29
 70
     1
102
RTVSPost2010Prop30
280
     1
102
RTVSPost2010PropOp30
 70
     1
102
RTVSPost2010Prop31
280
     0
102
RTVSPost2010PropOp31
 70
     1
102
RTVSPost2010Prop32
280
     0
102
RTVSPost2010PropOp32
 70
     1
102
RTVSPost2010Prop33
280
     0
102
RTVSPost2010PropOp33
 70
     1
102
RTVSPost2010Prop34
280
     0
102
RTVSPost2010PropOp34
 70
     1
102
RTVSPost2010Prop35
280
     0
102
RTVSPost2010PropOp35
 70
     1
102
RTVSPost2010Prop36
280
     0
102
RTVSPost2010PropOp36
 70
     1
102
RTVSPost2010Prop37
 90
       50
102
RTVSPost2010PropOp37
 70
     1
102
RTVSPost2010Prop38
140
0.0
102
RTVSPost2010PropOp38
 70
     1
102
RTVSPost2010Prop39
140
1.0
102
RTVSPost2010PropOp39
 70
     1
102
RTVSPost2010Prop40
 90
        0
102
RTVSPost2010PropOp40
 70
     1
102
RTVSPost2010Prop41ColorIndex
 90
       18
102
RTVSPost2010Prop41ColorRGB
 90
        0
102
RTVSPost2010PropOp41
 70
     1
102
RTVSPost2010Prop42
 90
       50
102
RTVSPost2010PropOp42
 70
     1
102
RTVSPost2010Prop43
 90
        3
102
RTVSPost2010PropOp43
 70
     1
102
RTVSPost2010Prop44ColorIndex
 90
        5
102
RTVSPost2010Prop44ColorRGB
 90
      255
102
RTVSPost2010PropOp44
 70
     1
102
RTVSPost2010Prop45
280
     0
102
RTVSPost2010PropOp45
 70
     1
102
RTVSPost2010Prop46
 90
       50
102
RTVSPost2010PropOp46
 70
     1
102
RTVSPost2010Prop47
 90
       50
102
RTVSPost2010PropOp47
 70
     1
102
RTVSPost2010Prop48
 90
       50
102
RTVSPost2010PropOp48
 70
     1
102
RTVSPost2010Prop49
280
     0
102
RTVSPost2010PropOp49
 70
     1
102
RTVSPost2010Prop50
 90
       50
102
RTVSPost2010PropOp50
 70
     1
102
RTVSPost2010Prop51ColorIndex
 90
      256
102
RTVSPost2010Prop51ColorRGB
 90
-16777216
102
RTVSPost2010PropOp51
 70
     0
102
RTVSPost2010Prop52
140
1.0
102
RTVSPost2010PropOp52
 70
     0
102
RTVSPost2010Prop53
 90
        2
102
RTVSPost2010PropOp53
 70
     1
102
RTVSPost2010Prop54
  1
strokes_ogs.tif
102
RTVSPost2010PropOp54
 70
     1
102
RTVSPost2010Prop55
280
     0
102
RTVSPost2010PropOp55
 70
     1
102
RTVSPost2010Prop56
140
1.0
102
RTVSPost2010PropOp56
 70
     1
102
RTVSPost2010Prop57
140
1.0
102
RTVSPost2010PropOp57
 70
     1
102
RTVSPropertyOp0
 70
     1
102
RTVSPropertyOp1
 70
     1
102
RTVSPropertyOp2
 70
     1
102
RTVSPropertyOp3
 70
     1
102
RTVSPropertyOp4
 70
     1
102
RTVSPropertyOp5
 70
     1
102
RTVSPropertyOp6
 70
     1
102
RTVSPropertyOp7
 70
     1
102
RTVSPropertyOp8
 70
     1
102
RTVSPropertyOp9
 70
     1
102
RTVSPropertyOp10
 70
     1
102
RTVSPropertyOp11
 70
     1
102
RTVSPropertyOp12
 70
     1
102
RTVSPropertyOp13
 70
     1
102
RTVSPropertyOp14
 70
     1
102
RTVSPropertyOp15
 70
     1
102
RTVSPropertyOp16
 70
     1
102
RTVSPropertyOp17
 70
     1
102
RTVSPropertyOp18
 70
     1
102
RTVSPropertyOp19
 70
     1
102
RTVSPropertyOp20
 70
     1
102
RTVSPropertyOp21
 70
     1
102
RTVSPropertyOp22
 70
     1
102
RTVSPropertyOp23
 70
     1
102
RTVSPropertyOp24
 70
     1
102
RTVSPropertyOp25
 70
     1
102
RTVSPropertyOp26
 70
     1
102
RTVSPropertyOp27
 70
     1
102
RTVSPropertyOp28
 70
     1
102
RTVSPropertyOp29
 70
     1
102
RTVSPropertyOp30
 70
     1
102
RTVSPropertyOp31
 70
     1
102
RTVSPropertyOp32
 70
     1
102
RTVSPropertyOp33
 70
     1
102
RTVSPropertyOp34
 70
     1
102
RTVSPropertyOp35
 70
     1
102
RTVSPropertyOp36
 70
     1
102
RTVSPropertyOp37
 70
     1
102
RTVSPropertyOp38
 70
     1
102
RTVSPropertyOp39
 70
     1
102
RTVSPropertyOp40
 70
     1
102
RTVSPropertyOp41
 70
     1
102
RTVSPropertyOp42
 70
     1
102
RTVSPropertyOp43
 70
     1
102
RTVSPropertyOp44
 70
     1
102
RTVSPropertyOp45
 70
     1
102
RTVSPropertyOp46
 70
     1
102
RTVSPropertyOp47
 70
     1
102
RTVSPropertyOp48
 70
     1
102
RTVSPropertyOp49
 70
     1
102
RTVSPropertyOp50
 70
     1
102
RTVSPropertyOp51
 70
     0
102
RTVSPropertyOp52
 70
     0
102
RTVSPropertyOp53
 70
     1
102
RTVSPropertyOp54
 70
     1
102
RTVSPropertyOp55
 70
     1
102
RTVSPropertyOp56
 70
     1
102
RTVSPropertyOp57
 70
     1
102
RTVSPropertyOp58
 70
     1
102
RTVSPropertyOp59
 70
     1
102
RTVSPropertyOp60
 70
     1
102
RTVSPropertyOp61
 70
     1
102
RTVSPropertyOp62
 70
     1
  0
XRECORD
  5
96E
102
{ACAD_REACTORS
330
96D
102
}
330
96D
100
AcDbXrecord
280
     1
102
RTVSPost2010Prop28
280
     0
102
RTVSPost2010PropOp28
 70
     1
102
RTVSPost2010Prop29
280
     1
102
RTVSPost2010PropOp29
 70
     1
102
RTVSPost2010Prop30
280
     1
102
RTVSPost2010PropOp30
 70
     1
102
RTVSPost2010Prop31
280
     0
102
RTVSPost2010PropOp31
 70
     1
102
RTVSPost2010Prop32
280
     0
102
RTVSPost2010PropOp32
 70
     1
102
RTVSPost2010Prop33
280
     0
102
RTVSPost2010PropOp33
 70
     1
102
RTVSPost2010Prop34
280
     0
102
RTVSPost2010PropOp34
 70
     1
102
RTVSPost2010Prop35
280
     0
102
RTVSPost2010PropOp35
 70
     1
102
RTVSPost2010Prop36
280
     0
102
RTVSPost2010PropOp36
 70
     1
102
RTVSPost2010Prop37
 90
       50
102
RTVSPost2010PropOp37
 70
     1
102
RTVSPost2010Prop38
140
0.0
102
RTVSPost2010PropOp38
 70
     1
102
RTVSPost2010Prop39
140
1.0
102
RTVSPost2010PropOp39
 70
     1
102
RTVSPost2010Prop40
 90
        0
102
RTVSPost2010PropOp40
 70
     1
102
RTVSPost2010Prop41ColorIndex
 90
       18
102
RTVSPost2010Prop41ColorRGB
 90
        0
102
RTVSPost2010PropOp41
 70
     1
102
RTVSPost2010Prop42
 90
       50
102
RTVSPost2010PropOp42
 70
     1
102
RTVSPost2010Prop43
 90
        3
102
RTVSPost2010PropOp43
 70
     1
102
RTVSPost2010Prop44ColorIndex
 90
        5
102
RTVSPost2010Prop44ColorRGB
 90
      255
102
RTVSPost2010PropOp44
 70
     1
102
RTVSPost2010Prop45
280
     0
102
RTVSPost2010PropOp45
 70
     1
102
RTVSPost2010Prop46
 90
       50
102
RTVSPost2010PropOp46
 70
     1
102
RTVSPost2010Prop47
 90
       50
102
RTVSPost2010PropOp47
 70
     1
102
RTVSPost2010Prop48
 90
       50
102
RTVSPost2010PropOp48
 70
     1
102
RTVSPost2010Prop49
280
     0
102
RTVSPost2010PropOp49
 70
     1
102
RTVSPost2010Prop50
 90
       50
102
RTVSPost2010PropOp50
 70
     1
102
RTVSPost2010Prop51ColorIndex
 90
      256
102
RTVSPost2010Prop51ColorRGB
 90
-16777216
102
RTVSPost2010PropOp51
 70
     0
102
RTVSPost2010Prop52
140
1.0
102
RTVSPost2010PropOp52
 70
     0
102
RTVSPost2010Prop53
 90
        2
102
RTVSPost2010PropOp53
 70
     1
102
RTVSPost2010Prop54
  1
strokes_ogs.tif
102
RTVSPost2010PropOp54
 70
     1
102
RTVSPost2010Prop55
280
     0
102
RTVSPost2010PropOp55
 70
     1
102
RTVSPost2010Prop56
140
1.0
102
RTVSPost2010PropOp56
 70
     1
102
RTVSPost2010Prop57
140
1.0
102
RTVSPost2010PropOp57
 70
     1
102
RTVSPropertyOp0
 70
     1
102
RTVSPropertyOp1
 70
     1
102
RTVSPropertyOp2
 70
     1
102
RTVSPropertyOp3
 70
     1
102
RTVSPropertyOp4
 70
     1
102
RTVSPropertyOp5
 70
     1
102
RTVSPropertyOp6
 70
     1
102
RTVSPropertyOp7
 70
     1
102
RTVSPropertyOp8
 70
     1
102
RTVSPropertyOp9
 70
     1
102
RTVSPropertyOp10
 70
     1
102
RTVSPropertyOp11
 70
     1
102
RTVSPropertyOp12
 70
     1
102
RTVSPropertyOp13
 70
     1
102
RTVSPropertyOp14
 70
     1
102
RTVSPropertyOp15
 70
     1
102
RTVSPropertyOp16
 70
     1
102
RTVSPropertyOp17
 70
     1
102
RTVSPropertyOp18
 70
     1
102
RTVSPropertyOp19
 70
     1
102
RTVSPropertyOp20
 70
     1
102
RTVSPropertyOp21
 70
     1
102
RTVSPropertyOp22
 70
     1
102
RTVSPropertyOp23
 70
     1
102
RTVSPropertyOp24
 70
     1
102
RTVSPropertyOp25
 70
     1
102
RTVSPropertyOp26
 70
     1
102
RTVSPropertyOp27
 70
     1
102
RTVSPropertyOp28
 70
     1
102
RTVSPropertyOp29
 70
     1
102
RTVSPropertyOp30
 70
     1
102
RTVSPropertyOp31
 70
     1
102
RTVSPropertyOp32
 70
     1
102
RTVSPropertyOp33
 70
     1
102
RTVSPropertyOp34
 70
     1
102
RTVSPropertyOp35
 70
     1
102
RTVSPropertyOp36
 70
     1
102
RTVSPropertyOp37
 70
     1
102
RTVSPropertyOp38
 70
     1
102
RTVSPropertyOp39
 70
     1
102
RTVSPropertyOp40
 70
     1
102
RTVSPropertyOp41
 70
     1
102
RTVSPropertyOp42
 70
     1
102
RTVSPropertyOp43
 70
     1
102
RTVSPropertyOp44
 70
     1
102
RTVSPropertyOp45
 70
     1
102
RTVSPropertyOp46
 70
     1
102
RTVSPropertyOp47
 70
     1
102
RTVSPropertyOp48
 70
     1
102
RTVSPropertyOp49
 70
     1
102
RTVSPropertyOp50
 70
     1
102
RTVSPropertyOp51
 70
     0
102
RTVSPropertyOp52
 70
     0
102
RTVSPropertyOp53
 70
     1
102
RTVSPropertyOp54
 70
     1
102
RTVSPropertyOp55
 70
     1
102
RTVSPropertyOp56
 70
     1
102
RTVSPropertyOp57
 70
     1
102
RTVSPropertyOp58
 70
     1
102
RTVSPropertyOp59
 70
     1
102
RTVSPropertyOp60
 70
     1
102
RTVSPropertyOp61
 70
     1
102
RTVSPropertyOp62
 70
     1
  0
XRECORD
  5
964
102
{ACAD_REACTORS
330
963
102
}
330
963
100
AcDbXrecord
280
     1
102
RTVSPost2010Prop28
280
     0
102
RTVSPost2010PropOp28
 70
     1
102
RTVSPost2010Prop29
280
     1
102
RTVSPost2010PropOp29
 70
     1
102
RTVSPost2010Prop30
280
     1
102
RTVSPost2010PropOp30
 70
     1
102
RTVSPost2010Prop31
280
     0
102
RTVSPost2010PropOp31
 70
     1
102
RTVSPost2010Prop32
280
     0
102
RTVSPost2010PropOp32
 70
     1
102
RTVSPost2010Prop33
280
     0
102
RTVSPost2010PropOp33
 70
     1
102
RTVSPost2010Prop34
280
     0
102
RTVSPost2010PropOp34
 70
     1
102
RTVSPost2010Prop35
280
     0
102
RTVSPost2010PropOp35
 70
     1
102
RTVSPost2010Prop36
280
     0
102
RTVSPost2010PropOp36
 70
     1
102
RTVSPost2010Prop37
 90
       50
102
RTVSPost2010PropOp37
 70
     1
102
RTVSPost2010Prop38
140
0.0
102
RTVSPost2010PropOp38
 70
     1
102
RTVSPost2010Prop39
140
1.0
102
RTVSPost2010PropOp39
 70
     1
102
RTVSPost2010Prop40
 90
        0
102
RTVSPost2010PropOp40
 70
     1
102
RTVSPost2010Prop41ColorIndex
 90
       18
102
RTVSPost2010Prop41ColorRGB
 90
        0
102
RTVSPost2010PropOp41
 70
     1
102
RTVSPost2010Prop42
 90
       50
102
RTVSPost2010PropOp42
 70
     1
102
RTVSPost2010Prop43
 90
        3
102
RTVSPost2010PropOp43
 70
     1
102
RTVSPost2010Prop44ColorIndex
 90
        5
102
RTVSPost2010Prop44ColorRGB
 90
      255
102
RTVSPost2010PropOp44
 70
     1
102
RTVSPost2010Prop45
280
     0
102
RTVSPost2010PropOp45
 70
     1
102
RTVSPost2010Prop46
 90
       50
102
RTVSPost2010PropOp46
 70
     1
102
RTVSPost2010Prop47
 90
       50
102
RTVSPost2010PropOp47
 70
     1
102
RTVSPost2010Prop48
 90
       50
102
RTVSPost2010PropOp48
 70
     1
102
RTVSPost2010Prop49
280
     0
102
RTVSPost2010PropOp49
 70
     1
102
RTVSPost2010Prop50
 90
       50
102
RTVSPost2010PropOp50
 70
     1
102
RTVSPost2010Prop51ColorIndex
 90
      256
102
RTVSPost2010Prop51ColorRGB
 90
-16777216
102
RTVSPost2010PropOp51
 70
     0
102
RTVSPost2010Prop52
140
1.0
102
RTVSPost2010PropOp52
 70
     0
102
RTVSPost2010Prop53
 90
        2
102
RTVSPost2010PropOp53
 70
     1
102
RTVSPost2010Prop54
  1
strokes_ogs.tif
102
RTVSPost2010PropOp54
 70
     1
102
RTVSPost2010Prop55
280
     0
102
RTVSPost2010PropOp55
 70
     1
102
RTVSPost2010Prop56
140
1.0
102
RTVSPost2010PropOp56
 70
     1
102
RTVSPost2010Prop57
140
1.0
102
RTVSPost2010PropOp57
 70
     1
102
RTVSPropertyOp0
 70
     1
102
RTVSPropertyOp1
 70
     1
102
RTVSPropertyOp2
 70
     1
102
RTVSPropertyOp3
 70
     1
102
RTVSPropertyOp4
 70
     1
102
RTVSPropertyOp5
 70
     1
102
RTVSPropertyOp6
 70
     1
102
RTVSPropertyOp7
 70
     1
102
RTVSPropertyOp8
 70
     1
102
RTVSPropertyOp9
 70
     1
102
RTVSPropertyOp10
 70
     1
102
RTVSPropertyOp11
 70
     1
102
RTVSPropertyOp12
 70
     1
102
RTVSPropertyOp13
 70
     1
102
RTVSPropertyOp14
 70
     1
102
RTVSPropertyOp15
 70
     1
102
RTVSPropertyOp16
 70
     1
102
RTVSPropertyOp17
 70
     1
102
RTVSPropertyOp18
 70
     1
102
RTVSPropertyOp19
 70
     1
102
RTVSPropertyOp20
 70
     1
102
RTVSPropertyOp21
 70
     1
102
RTVSPropertyOp22
 70
     1
102
RTVSPropertyOp23
 70
     1
102
RTVSPropertyOp24
 70
     1
102
RTVSPropertyOp25
 70
     1
102
RTVSPropertyOp26
 70
     1
102
RTVSPropertyOp27
 70
     1
102
RTVSPropertyOp28
 70
     1
102
RTVSPropertyOp29
 70
     1
102
RTVSPropertyOp30
 70
     1
102
RTVSPropertyOp31
 70
     1
102
RTVSPropertyOp32
 70
     1
102
RTVSPropertyOp33
 70
     1
102
RTVSPropertyOp34
 70
     1
102
RTVSPropertyOp35
 70
     1
102
RTVSPropertyOp36
 70
     1
102
RTVSPropertyOp37
 70
     1
102
RTVSPropertyOp38
 70
     1
102
RTVSPropertyOp39
 70
     1
102
RTVSPropertyOp40
 70
     1
102
RTVSPropertyOp41
 70
     1
102
RTVSPropertyOp42
 70
     1
102
RTVSPropertyOp43
 70
     1
102
RTVSPropertyOp44
 70
     1
102
RTVSPropertyOp45
 70
     1
102
RTVSPropertyOp46
 70
     1
102
RTVSPropertyOp47
 70
     1
102
RTVSPropertyOp48
 70
     1
102
RTVSPropertyOp49
 70
     1
102
RTVSPropertyOp50
 70
     1
102
RTVSPropertyOp51
 70
     0
102
RTVSPropertyOp52
 70
     0
102
RTVSPropertyOp53
 70
     1
102
RTVSPropertyOp54
 70
     1
102
RTVSPropertyOp55
 70
     1
102
RTVSPropertyOp56
 70
     1
102
RTVSPropertyOp57
 70
     1
102
RTVSPropertyOp58
 70
     1
102
RTVSPropertyOp59
 70
     1
102
RTVSPropertyOp60
 70
     1
102
RTVSPropertyOp61
 70
     1
102
RTVSPropertyOp62
 70
     1
  0
XRECORD
  5
958
102
{ACAD_REACTORS
330
957
102
}
330
957
100
AcDbXrecord
280
     1
102
RTVSPost2010Prop28
280
     0
102
RTVSPost2010PropOp28
 70
     1
102
RTVSPost2010Prop29
280
     1
102
RTVSPost2010PropOp29
 70
     1
102
RTVSPost2010Prop30
280
     1
102
RTVSPost2010PropOp30
 70
     1
102
RTVSPost2010Prop31
280
     0
102
RTVSPost2010PropOp31
 70
     1
102
RTVSPost2010Prop32
280
     0
102
RTVSPost2010PropOp32
 70
     1
102
RTVSPost2010Prop33
280
     0
102
RTVSPost2010PropOp33
 70
     1
102
RTVSPost2010Prop34
280
     0
102
RTVSPost2010PropOp34
 70
     1
102
RTVSPost2010Prop35
280
     0
102
RTVSPost2010PropOp35
 70
     1
102
RTVSPost2010Prop36
280
     0
102
RTVSPost2010PropOp36
 70
     1
102
RTVSPost2010Prop37
 90
       50
102
RTVSPost2010PropOp37
 70
     1
102
RTVSPost2010Prop38
140
0.0
102
RTVSPost2010PropOp38
 70
     1
102
RTVSPost2010Prop39
140
1.0
102
RTVSPost2010PropOp39
 70
     1
102
RTVSPost2010Prop40
 90
        0
102
RTVSPost2010PropOp40
 70
     1
102
RTVSPost2010Prop41ColorIndex
 90
       18
102
RTVSPost2010Prop41ColorRGB
 90
        0
102
RTVSPost2010PropOp41
 70
     1
102
RTVSPost2010Prop42
 90
       50
102
RTVSPost2010PropOp42
 70
     1
102
RTVSPost2010Prop43
 90
        3
102
RTVSPost2010PropOp43
 70
     1
102
RTVSPost2010Prop44ColorIndex
 90
        5
102
RTVSPost2010Prop44ColorRGB
 90
      255
102
RTVSPost2010PropOp44
 70
     1
102
RTVSPost2010Prop45
280
     0
102
RTVSPost2010PropOp45
 70
     1
102
RTVSPost2010Prop46
 90
       50
102
RTVSPost2010PropOp46
 70
     1
102
RTVSPost2010Prop47
 90
       50
102
RTVSPost2010PropOp47
 70
     1
102
RTVSPost2010Prop48
 90
       50
102
RTVSPost2010PropOp48
 70
     1
102
RTVSPost2010Prop49
280
     0
102
RTVSPost2010PropOp49
 70
     1
102
RTVSPost2010Prop50
 90
       50
102
RTVSPost2010PropOp50
 70
     1
102
RTVSPost2010Prop51ColorIndex
 90
      256
102
RTVSPost2010Prop51ColorRGB
 90
-16777216
102
RTVSPost2010PropOp51
 70
     0
102
RTVSPost2010Prop52
140
1.0
102
RTVSPost2010PropOp52
 70
     0
102
RTVSPost2010Prop53
 90
        2
102
RTVSPost2010PropOp53
 70
     1
102
RTVSPost2010Prop54
  1
strokes_ogs.tif
102
RTVSPost2010PropOp54
 70
     1
102
RTVSPost2010Prop55
280
     0
102
RTVSPost2010PropOp55
 70
     1
102
RTVSPost2010Prop56
140
1.0
102
RTVSPost2010PropOp56
 70
     1
102
RTVSPost2010Prop57
140
1.0
102
RTVSPost2010PropOp57
 70
     1
102
RTVSPropertyOp0
 70
     1
102
RTVSPropertyOp1
 70
     1
102
RTVSPropertyOp2
 70
     1
102
RTVSPropertyOp3
 70
     1
102
RTVSPropertyOp4
 70
     1
102
RTVSPropertyOp5
 70
     1
102
RTVSPropertyOp6
 70
     1
102
RTVSPropertyOp7
 70
     1
102
RTVSPropertyOp8
 70
     1
102
RTVSPropertyOp9
 70
     1
102
RTVSPropertyOp10
 70
     1
102
RTVSPropertyOp11
 70
     1
102
RTVSPropertyOp12
 70
     1
102
RTVSPropertyOp13
 70
     1
102
RTVSPropertyOp14
 70
     1
102
RTVSPropertyOp15
 70
     1
102
RTVSPropertyOp16
 70
     1
102
RTVSPropertyOp17
 70
     1
102
RTVSPropertyOp18
 70
     1
102
RTVSPropertyOp19
 70
     1
102
RTVSPropertyOp20
 70
     1
102
RTVSPropertyOp21
 70
     1
102
RTVSPropertyOp22
 70
     1
102
RTVSPropertyOp23
 70
     1
102
RTVSPropertyOp24
 70
     1
102
RTVSPropertyOp25
 70
     1
102
RTVSPropertyOp26
 70
     1
102
RTVSPropertyOp27
 70
     1
102
RTVSPropertyOp28
 70
     1
102
RTVSPropertyOp29
 70
     1
102
RTVSPropertyOp30
 70
     1
102
RTVSPropertyOp31
 70
     1
102
RTVSPropertyOp32
 70
     1
102
RTVSPropertyOp33
 70
     1
102
RTVSPropertyOp34
 70
     1
102
RTVSPropertyOp35
 70
     1
102
RTVSPropertyOp36
 70
     1
102
RTVSPropertyOp37
 70
     1
102
RTVSPropertyOp38
 70
     1
102
RTVSPropertyOp39
 70
     1
102
RTVSPropertyOp40
 70
     1
102
RTVSPropertyOp41
 70
     1
102
RTVSPropertyOp42
 70
     1
102
RTVSPropertyOp43
 70
     1
102
RTVSPropertyOp44
 70
     1
102
RTVSPropertyOp45
 70
     1
102
RTVSPropertyOp46
 70
     1
102
RTVSPropertyOp47
 70
     1
102
RTVSPropertyOp48
 70
     1
102
RTVSPropertyOp49
 70
     1
102
RTVSPropertyOp50
 70
     1
102
RTVSPropertyOp51
 70
     0
102
RTVSPropertyOp52
 70
     0
102
RTVSPropertyOp53
 70
     1
102
RTVSPropertyOp54
 70
     1
102
RTVSPropertyOp55
 70
     1
102
RTVSPropertyOp56
 70
     1
102
RTVSPropertyOp57
 70
     1
102
RTVSPropertyOp58
 70
     1
102
RTVSPropertyOp59
 70
     1
102
RTVSPropertyOp60
 70
     1
102
RTVSPropertyOp61
 70
     1
102
RTVSPropertyOp62
 70
     1
  0
XRECORD
  5
970
102
{ACAD_REACTORS
330
96F
102
}
330
96F
100
AcDbXrecord
280
     1
102
RTVSPost2010Prop28
280
     0
102
RTVSPost2010PropOp28
 70
     1
102
RTVSPost2010Prop29
280
     1
102
RTVSPost2010PropOp29
 70
     1
102
RTVSPost2010Prop30
280
     1
102
RTVSPost2010PropOp30
 70
     1
102
RTVSPost2010Prop31
280
     0
102
RTVSPost2010PropOp31
 70
     1
102
RTVSPost2010Prop32
280
     0
102
RTVSPost2010PropOp32
 70
     1
102
RTVSPost2010Prop33
280
     0
102
RTVSPost2010PropOp33
 70
     1
102
RTVSPost2010Prop34
280
     0
102
RTVSPost2010PropOp34
 70
     1
102
RTVSPost2010Prop35
280
     0
102
RTVSPost2010PropOp35
 70
     1
102
RTVSPost2010Prop36
280
     0
102
RTVSPost2010PropOp36
 70
     1
102
RTVSPost2010Prop37
 90
       50
102
RTVSPost2010PropOp37
 70
     1
102
RTVSPost2010Prop38
140
0.0
102
RTVSPost2010PropOp38
 70
     1
102
RTVSPost2010Prop39
140
1.0
102
RTVSPost2010PropOp39
 70
     1
102
RTVSPost2010Prop40
 90
        0
102
RTVSPost2010PropOp40
 70
     1
102
RTVSPost2010Prop41ColorIndex
 90
       18
102
RTVSPost2010Prop41ColorRGB
 90
        0
102
RTVSPost2010PropOp41
 70
     1
102
RTVSPost2010Prop42
 90
       50
102
RTVSPost2010PropOp42
 70
     1
102
RTVSPost2010Prop43
 90
        3
102
RTVSPost2010PropOp43
 70
     1
102
RTVSPost2010Prop44ColorIndex
 90
        5
102
RTVSPost2010Prop44ColorRGB
 90
      255
102
RTVSPost2010PropOp44
 70
     1
102
RTVSPost2010Prop45
280
     0
102
RTVSPost2010PropOp45
 70
     1
102
RTVSPost2010Prop46
 90
       50
102
RTVSPost2010PropOp46
 70
     1
102
RTVSPost2010Prop47
 90
       50
102
RTVSPost2010PropOp47
 70
     1
102
RTVSPost2010Prop48
 90
       50
102
RTVSPost2010PropOp48
 70
     1
102
RTVSPost2010Prop49
280
     0
102
RTVSPost2010PropOp49
 70
     1
102
RTVSPost2010Prop50
 90
       50
102
RTVSPost2010PropOp50
 70
     1
102
RTVSPost2010Prop51ColorIndex
 90
      256
102
RTVSPost2010Prop51ColorRGB
 90
-16777216
102
RTVSPost2010PropOp51
 70
     0
102
RTVSPost2010Prop52
140
1.0
102
RTVSPost2010PropOp52
 70
     0
102
RTVSPost2010Prop53
 90
        2
102
RTVSPost2010PropOp53
 70
     1
102
RTVSPost2010Prop54
  1
strokes_ogs.tif
102
RTVSPost2010PropOp54
 70
     1
102
RTVSPost2010Prop55
280
     0
102
RTVSPost2010PropOp55
 70
     1
102
RTVSPost2010Prop56
140
1.0
102
RTVSPost2010PropOp56
 70
     1
102
RTVSPost2010Prop57
140
1.0
102
RTVSPost2010PropOp57
 70
     1
102
RTVSPropertyOp0
 70
     1
102
RTVSPropertyOp1
 70
     1
102
RTVSPropertyOp2
 70
     1
102
RTVSPropertyOp3
 70
     1
102
RTVSPropertyOp4
 70
     1
102
RTVSPropertyOp5
 70
     1
102
RTVSPropertyOp6
 70
     1
102
RTVSPropertyOp7
 70
     1
102
RTVSPropertyOp8
 70
     1
102
RTVSPropertyOp9
 70
     1
102
RTVSPropertyOp10
 70
     1
102
RTVSPropertyOp11
 70
     1
102
RTVSPropertyOp12
 70
     1
102
RTVSPropertyOp13
 70
     1
102
RTVSPropertyOp14
 70
     1
102
RTVSPropertyOp15
 70
     1
102
RTVSPropertyOp16
 70
     1
102
RTVSPropertyOp17
 70
     1
102
RTVSPropertyOp18
 70
     1
102
RTVSPropertyOp19
 70
     1
102
RTVSPropertyOp20
 70
     1
102
RTVSPropertyOp21
 70
     1
102
RTVSPropertyOp22
 70
     1
102
RTVSPropertyOp23
 70
     1
102
RTVSPropertyOp24
 70
     1
102
RTVSPropertyOp25
 70
     1
102
RTVSPropertyOp26
 70
     1
102
RTVSPropertyOp27
 70
     1
102
RTVSPropertyOp28
 70
     1
102
RTVSPropertyOp29
 70
     1
102
RTVSPropertyOp30
 70
     1
102
RTVSPropertyOp31
 70
     1
102
RTVSPropertyOp32
 70
     1
102
RTVSPropertyOp33
 70
     1
102
RTVSPropertyOp34
 70
     1
102
RTVSPropertyOp35
 70
     1
102
RTVSPropertyOp36
 70
     1
102
RTVSPropertyOp37
 70
     1
102
RTVSPropertyOp38
 70
     1
102
RTVSPropertyOp39
 70
     1
102
RTVSPropertyOp40
 70
     1
102
RTVSPropertyOp41
 70
     1
102
RTVSPropertyOp42
 70
     1
102
RTVSPropertyOp43
 70
     1
102
RTVSPropertyOp44
 70
     1
102
RTVSPropertyOp45
 70
     1
102
RTVSPropertyOp46
 70
     1
102
RTVSPropertyOp47
 70
     1
102
RTVSPropertyOp48
 70
     1
102
RTVSPropertyOp49
 70
     1
102
RTVSPropertyOp50
 70
     1
102
RTVSPropertyOp51
 70
     0
102
RTVSPropertyOp52
 70
     0
102
RTVSPropertyOp53
 70
     1
102
RTVSPropertyOp54
 70
     1
102
RTVSPropertyOp55
 70
     1
102
RTVSPropertyOp56
 70
     1
102
RTVSPropertyOp57
 70
     1
102
RTVSPropertyOp58
 70
     1
102
RTVSPropertyOp59
 70
     1
102
RTVSPropertyOp60
 70
     1
102
RTVSPropertyOp61
 70
     1
102
RTVSPropertyOp62
 70
     1
  0
ENDSEC
  0
EOF
